Поиск

(Funk, Soul) [CD] Earth, Wind & Fire - The Real... Earth, Wind & Fire (3CD) - 2017, FLAC (tracks+.cue), lossless

(Funk, Soul) [CD] Earth, Wind & Fire - The Real... Earth, Wind & Fire (3CD) - 2017, FLAC (tracks+.cue), lossless
Треклист:
Earth, Wind & Fire - The Real... Earth, Wind & Fire (3CD)

Жанр: Funk, Soul | Носитель: CD
Год издания: 2017 | Издатель (лейбл): Sony Music | Номер по каталогу: 88985416522
Аудиокодек: FLAC (*.flac) | Тип рипа: tracks+.cue | Битрейт аудио: lossless
Продолжительность: 03:21:39 | Источник (релизер): Olivierito
Наличие сканов в содержимом раздачи: да 
 
 
CD 1 (68:39)
Треклист:
01. Open Our Eyes (5:07)
02. Evil (5:01)
03. Keep Your Head To The Sky (5:11)
04. Devotion (4:56)
05. Mighty Mighty (3:04)
06. Kalimba Story (4:03)
07. Shining Star (2:50)
08. That's the Way Of The World (5:46)
09. Happy Feelin' (3:19)
10. All About Love (6:36)
11. Yearnin' Learnin' (3:40)
12. Sun Goddess (live with Ramsey Lewis) (7:42)
13. Sing A Song (3:25)
14. Can't Hide Love (4:12)
15. Getaway (3:47)
 
 
Лог создания рипа
Exact Audio Copy V1.3 from 2. September 2016
EAC extraction logfile from 25. July 2017, 15:54
Earth, Wind & Fire / The Real... Earth, Wind & Fire (Disc 1)
Used drive : TSSTcorpCDDVDW SE-208AB Adapter: 2 ID: 0
Read mode : Secure
Utilize accurate stream : Yes
Defeat audio cache : Yes
Make use of C2 pointers : No
Read offset correction : 6
Overread into Lead-In and Lead-Out : No
Fill up missing offset samples with silence : Yes
Delete leading and trailing silent blocks : No
Null samples used in CRC calculations : Yes
Used interface : Installed external ASPI interface
Gap handling : Appended to previous track
Used output format : User Defined Encoder
Selected bitrate : 768 kBit/s
Quality : High
Add ID3 tag : No
Command line compressor : C:\Program Files (x86)\Exact Audio Copy\Flac\flac.exe
Additional command line options : -8 -V -T "ARTIST=%artist%" -T "TITLE=%title%" -T "ALBUM=%albumtitle%" -T "DATE=%year%" -T "TRACKNUMBER=%tracknr%" -T "GENRE=%genre%" -T "COMMENT=%comment%" -T "BAND=%albuminterpret%" -T "ALBUMARTIST=%albuminterpret%" -T "COMPOSER=%composer%" %haslyrics%--tag-from-file=LYRICS="%lyricsfile%"%haslyrics% -T "DISCNUMBER=%cdnumber%" -T "TOTALDISCS=%totalcds%" -T "TOTALTRACKS=%numtracks%" %hascover%--picture="%coverfile%"%hascover% %source% -o %dest%
TOC of the extracted CD
Track | Start | Length | Start sector | End sector
---------------------------------------------------------
1 | 0:00.00 | 5:07.21 | 0 | 23045
2 | 5:07.21 | 5:00.40 | 23046 | 45585
3 | 10:07.61 | 5:11.36 | 45586 | 68946
4 | 15:19.22 | 4:56.03 | 68947 | 91149
5 | 20:15.25 | 3:04.26 | 91150 | 104975
6 | 23:19.51 | 4:02.70 | 104976 | 123195
7 | 27:22.46 | 2:50.16 | 123196 | 135961
8 | 30:12.62 | 5:45.38 | 135962 | 161874
9 | 35:58.25 | 3:18.52 | 161875 | 176776
10 | 39:17.02 | 6:35.49 | 176777 | 206450
11 | 45:52.51 | 3:40.15 | 206451 | 222965
12 | 49:32.66 | 7:41.71 | 222966 | 257611
13 | 57:14.62 | 3:25.04 | 257612 | 272990
14 | 60:39.66 | 4:12.01 | 272991 | 291891
15 | 64:51.67 | 3:47.03 | 291892 | 308919
Track 1
Filename C:\Program Files (x86)\Exact Audio Copy\Flac\01. Open Our Eyes.wav
Pre-gap length 0:00:02.00
Peak level 99.5 %
Extraction speed 2.8 X
Track quality 100.0 %
Test CRC 29E072FB
Copy CRC 29E072FB
Accurately ripped (confidence 2) [CF68F191] (AR v2)
Copy OK
Track 2
Filename C:\Program Files (x86)\Exact Audio Copy\Flac\02. Evil.wav
Pre-gap length 0:00:01.03
Peak level 97.7 %
Extraction speed 3.3 X
Track quality 100.0 %
Test CRC E6EB30AA
Copy CRC E6EB30AA
Accurately ripped (confidence 2) [61F4025C] (AR v2)
Copy OK
Track 3
Filename C:\Program Files (x86)\Exact Audio Copy\Flac\03. Keep Your Head To The Sky.wav
Pre-gap length 0:00:01.08
Peak level 99.6 %
Extraction speed 3.6 X
Track quality 100.0 %
Test CRC DBA29030
Copy CRC DBA29030
Accurately ripped (confidence 2) [CAAC8318] (AR v2)
Copy OK
Track 4
Filename C:\Program Files (x86)\Exact Audio Copy\Flac\04. Devotion.wav
Peak level 95.4 %
Extraction speed 3.8 X
Track quality 100.0 %
Test CRC 5E571BA3
Copy CRC 5E571BA3
Accurately ripped (confidence 2) [AD32A0FD] (AR v2)
Copy OK
Track 5
Filename C:\Program Files (x86)\Exact Audio Copy\Flac\05. Mighty Mighty.wav
Pre-gap length 0:00:00.34
Peak level 95.5 %
Extraction speed 3.8 X
Track quality 100.0 %
Test CRC 920A7CE8
Copy CRC 920A7CE8
Accurately ripped (confidence 2) [ED13BC08] (AR v2)
Copy OK
Track 6
Filename C:\Program Files (x86)\Exact Audio Copy\Flac\06. Kalimba Story.wav
Pre-gap length 0:00:00.34
Peak level 99.6 %
Extraction speed 4.1 X
Track quality 100.0 %
Test CRC 6796C29A
Copy CRC 6796C29A
Accurately ripped (confidence 2) [382D84F9] (AR v2)
Copy OK
Track 7
Filename C:\Program Files (x86)\Exact Audio Copy\Flac\07. Shining Star.wav
Pre-gap length 0:00:00.28
Peak level 99.6 %
Extraction speed 4.0 X
Track quality 100.0 %
Test CRC E1BD6B1C
Copy CRC E1BD6B1C
Accurately ripped (confidence 2) [39DE0E6D] (AR v2)
Copy OK
Track 8
Filename C:\Program Files (x86)\Exact Audio Copy\Flac\08. That's the Way Of The World.wav
Peak level 99.6 %
Extraction speed 4.6 X
Track quality 100.0 %
Test CRC E900023B
Copy CRC E900023B
Accurately ripped (confidence 2) [D6FC7EE5] (AR v2)
Copy OK
Track 9
Filename C:\Program Files (x86)\Exact Audio Copy\Flac\09. Happy Feelin'.wav
Peak level 99.7 %
Extraction speed 4.3 X
Track quality 100.0 %
Test CRC 6574E8B2
Copy CRC 6574E8B2
Accurately ripped (confidence 2) [F252DF22] (AR v2)
Copy OK
Track 10
Filename C:\Program Files (x86)\Exact Audio Copy\Flac\10. All About Love.wav
Pre-gap length 0:00:00.13
Peak level 99.6 %
Extraction speed 5.0 X
Track quality 100.0 %
Test CRC E09245CB
Copy CRC E09245CB
Accurately ripped (confidence 2) [A58A2240] (AR v2)
Copy OK
Track 11
Filename C:\Program Files (x86)\Exact Audio Copy\Flac\11. Yearnin' Learnin'.wav
Peak level 99.8 %
Extraction speed 4.9 X
Track quality 100.0 %
Test CRC 309B3208
Copy CRC 309B3208
Accurately ripped (confidence 2) [20A0057C] (AR v2)
Copy OK
Track 12
Filename C:\Program Files (x86)\Exact Audio Copy\Flac\12. Sun Goddess (live with Ramsey Lewis).wav
Pre-gap length 0:00:00.31
Peak level 88.8 %
Extraction speed 5.5 X
Track quality 100.0 %
Test CRC E0C573E1
Copy CRC E0C573E1
Accurately ripped (confidence 2) [E06EAB2D] (AR v2)
Copy OK
Track 13
Filename C:\Program Files (x86)\Exact Audio Copy\Flac\13. Sing A Song.wav
Pre-gap length 0:00:00.40
Peak level 94.2 %
Extraction speed 5.2 X
Track quality 100.0 %
Test CRC 0F2C9290
Copy CRC 0F2C9290
Accurately ripped (confidence 2) [5CEAA033] (AR v2)
Copy OK
Track 14
Filename C:\Program Files (x86)\Exact Audio Copy\Flac\14. Can't Hide Love.wav
Pre-gap length 0:00:00.54
Peak level 94.2 %
Extraction speed 4.4 X
Track quality 99.9 %
Test CRC 870EE491
Copy CRC 870EE491
Accurately ripped (confidence 2) [CE0DBD04] (AR v2)
Copy OK
Track 15
Filename C:\Program Files (x86)\Exact Audio Copy\Flac\15. Getaway.wav
Pre-gap length 0:00:01.04
Peak level 99.6 %
Extraction speed 5.4 X
Track quality 100.0 %
Test CRC 46499C97
Copy CRC 46499C97
Accurately ripped (confidence 2) [8D699A1E] (AR v2)
Copy OK
All tracks accurately ripped
No errors occurred
End of status report
---- CUETools DB Plugin V2.1.6
[CTDB TOCID: Upr24W0zsU7NjyvEa1m_lidwaT8-] found
Submit result: Upr24W0zsU7NjyvEa1m_lidwaT8- has been confirmed
Track | CTDB Status
1 | (8/8) Accurately ripped
2 | (7/8) Accurately ripped
3 | (7/8) Accurately ripped
4 | (6/8) Accurately ripped
5 | (8/8) Accurately ripped
6 | (8/8) Accurately ripped
7 | (7/8) Accurately ripped
8 | (7/8) Accurately ripped
9 | (8/8) Accurately ripped
10 | (8/8) Accurately ripped
11 | (8/8) Accurately ripped
12 | (6/8) Accurately ripped
13 | (6/8) Accurately ripped
14 | (6/8) Accurately ripped
15 | (6/8) Accurately ripped
==== Log checksum B6EAE7932BAC7AD1D82A2E448818DB478F1964AEEC8FE48CE95577BA243A4D64 ====
 
Содержание индексной карты (.CUE)
REM GENRE R&B
REM DATE 2017
REM DISCID D010160F
REM COMMENT "ExactAudioCopy v1.3"
PERFORMER "Earth, Wind & Fire"
TITLE "The Real... Earth, Wind & Fire (Disc 1)"
REM COMPOSER ""
FILE "01. Open Our Eyes.wav" WAVE
TRACK 01 AUDIO
TITLE "Open Our Eyes"
PERFORMER "Earth, Wind & Fire"
REM COMPOSER ""
INDEX 01 00:00:00
TRACK 02 AUDIO
TITLE "Evil"
PERFORMER "Earth, Wind & Fire"
REM COMPOSER ""
INDEX 00 05:06:18
FILE "02. Evil.wav" WAVE
INDEX 01 00:00:00
TRACK 03 AUDIO
TITLE "Keep Your Head To The Sky"
PERFORMER "Earth, Wind & Fire"
REM COMPOSER ""
INDEX 00 04:59:32
FILE "03. Keep Your Head To The Sky.wav" WAVE
INDEX 01 00:00:00
FILE "04. Devotion.wav" WAVE
TRACK 04 AUDIO
TITLE "Devotion"
PERFORMER "Earth, Wind & Fire"
REM COMPOSER ""
INDEX 01 00:00:00
TRACK 05 AUDIO
TITLE "Mighty Mighty"
PERFORMER "Earth, Wind & Fire"
REM COMPOSER ""
INDEX 00 04:55:44
FILE "05. Mighty Mighty.wav" WAVE
INDEX 01 00:00:00
TRACK 06 AUDIO
TITLE "Kalimba Story"
PERFORMER "Earth, Wind & Fire"
REM COMPOSER ""
INDEX 00 03:03:67
FILE "06. Kalimba Story.wav" WAVE
INDEX 01 00:00:00
TRACK 07 AUDIO
TITLE "Shining Star"
PERFORMER "Earth, Wind & Fire"
REM COMPOSER ""
INDEX 00 04:02:42
FILE "07. Shining Star.wav" WAVE
INDEX 01 00:00:00
FILE "08. That's the Way Of The World.wav" WAVE
TRACK 08 AUDIO
TITLE "That's the Way Of The World"
PERFORMER "Earth, Wind & Fire"
REM COMPOSER ""
INDEX 01 00:00:00
FILE "09. Happy Feelin'.wav" WAVE
TRACK 09 AUDIO
TITLE "Happy Feelin'"
PERFORMER "Earth, Wind & Fire"
REM COMPOSER ""
INDEX 01 00:00:00
TRACK 10 AUDIO
TITLE "All About Love"
PERFORMER "Earth, Wind & Fire"
REM COMPOSER ""
INDEX 00 03:18:39
FILE "10. All About Love.wav" WAVE
INDEX 01 00:00:00
FILE "11. Yearnin' Learnin'.wav" WAVE
TRACK 11 AUDIO
TITLE "Yearnin' Learnin'"
PERFORMER "Earth, Wind & Fire"
REM COMPOSER ""
INDEX 01 00:00:00
TRACK 12 AUDIO
TITLE "Sun Goddess (live with Ramsey Lewis)"
PERFORMER "Earth, Wind & Fire"
REM COMPOSER ""
INDEX 00 03:39:59
FILE "12. Sun Goddess (live with Ramsey Lewis).wav" WAVE
INDEX 01 00:00:00
TRACK 13 AUDIO
TITLE "Sing A Song"
PERFORMER "Earth, Wind & Fire"
REM COMPOSER ""
INDEX 00 07:41:31
FILE "13. Sing A Song.wav" WAVE
INDEX 01 00:00:00
TRACK 14 AUDIO
TITLE "Can't Hide Love"
PERFORMER "Earth, Wind & Fire"
REM COMPOSER ""
INDEX 00 03:24:25
FILE "14. Can't Hide Love.wav" WAVE
INDEX 01 00:00:00
TRACK 15 AUDIO
TITLE "Getaway"
PERFORMER "Earth, Wind & Fire"
REM COMPOSER ""
INDEX 00 04:10:72
FILE "15. Getaway.wav" WAVE
INDEX 01 00:00:00
 
CD 2 (61:29)
Треклист:
01. Got To Get You Into My Life (4:11)
02. Love Music (3:55)
03. Saturday Nite (4:03)
04. On Your Face (4:34)
05. Biyo (3:38)
06. Imagination (5:17)
07. Spirit (3:14)
08. Burnin' Bush (Shout It On The Mountain mix) (5:09)
09. Serpentine Fire (3:50)
10. Fantasy (4:38)
11. Love's Holiday (4:23)
12. Ponta de Areia (Brazilian Rhyme) (0:54)
13. I'll Write A Song For You (5:24)
14. Jupiter (3:12)
15. Be Ever Wonderful (5:08)
 
 
Лог создания рипа
Exact Audio Copy V1.3 from 2. September 2016
EAC extraction logfile from 25. July 2017, 17:17
Earth, Wind & Fire / The Real... Earth, Wind & Fire (Disc 2)
Used drive : TSSTcorpCDDVDW SE-208AB Adapter: 2 ID: 0
Read mode : Secure
Utilize accurate stream : Yes
Defeat audio cache : Yes
Make use of C2 pointers : No
Read offset correction : 6
Overread into Lead-In and Lead-Out : No
Fill up missing offset samples with silence : Yes
Delete leading and trailing silent blocks : No
Null samples used in CRC calculations : Yes
Used interface : Installed external ASPI interface
Gap handling : Appended to previous track
Used output format : User Defined Encoder
Selected bitrate : 768 kBit/s
Quality : High
Add ID3 tag : No
Command line compressor : C:\Program Files (x86)\Exact Audio Copy\Flac\flac.exe
Additional command line options : -8 -V -T "ARTIST=%artist%" -T "TITLE=%title%" -T "ALBUM=%albumtitle%" -T "DATE=%year%" -T "TRACKNUMBER=%tracknr%" -T "GENRE=%genre%" -T "COMMENT=%comment%" -T "BAND=%albuminterpret%" -T "ALBUMARTIST=%albuminterpret%" -T "COMPOSER=%composer%" %haslyrics%--tag-from-file=LYRICS="%lyricsfile%"%haslyrics% -T "DISCNUMBER=%cdnumber%" -T "TOTALDISCS=%totalcds%" -T "TOTALTRACKS=%numtracks%" %hascover%--picture="%coverfile%"%hascover% %source% -o %dest%
TOC of the extracted CD
Track | Start | Length | Start sector | End sector
---------------------------------------------------------
1 | 0:00.00 | 4:10.43 | 0 | 18792
2 | 4:10.43 | 3:54.64 | 18793 | 36406
3 | 8:05.32 | 4:02.59 | 36407 | 54615
4 | 12:08.16 | 4:33.64 | 54616 | 75154
5 | 16:42.05 | 3:38.13 | 75155 | 91517
6 | 20:20.18 | 5:16.47 | 91518 | 115264
7 | 25:36.65 | 3:13.55 | 115265 | 129794
8 | 28:50.45 | 5:09.00 | 129795 | 152969
9 | 33:59.45 | 3:50.29 | 152970 | 170248
10 | 37:49.74 | 4:38.03 | 170249 | 191101
11 | 42:28.02 | 4:22.68 | 191102 | 210819
12 | 46:50.70 | 0:53.72 | 210820 | 214866
13 | 47:44.67 | 5:23.57 | 214867 | 239148
14 | 53:08.49 | 3:12.16 | 239149 | 253564
15 | 56:20.65 | 5:08.19 | 253565 | 276683
Track 1
Filename C:\Program Files (x86)\Exact Audio Copy\Flac\01. Got To Get You Into My Life.wav
Pre-gap length 0:00:02.00
Peak level 98.8 %
Extraction speed 1.2 X
Track quality 100.0 %
Test CRC 22F873E8
Copy CRC 22F873E8
Accurately ripped (confidence 2) [2D416EF6] (AR v2)
Copy OK
Track 2
Filename C:\Program Files (x86)\Exact Audio Copy\Flac\02. Love Music.wav
Peak level 100.0 %
Extraction speed 1.3 X
Track quality 100.0 %
Test CRC C9396489
Copy CRC C9396489
Accurately ripped (confidence 2) [5C633CB8] (AR v2)
Copy OK
Track 3
Filename C:\Program Files (x86)\Exact Audio Copy\Flac\03. Saturday Nite.wav
Pre-gap length 0:00:00.65
Peak level 99.6 %
Extraction speed 1.5 X
Track quality 100.0 %
Test CRC F524E098
Copy CRC F524E098
Accurately ripped (confidence 2) [EE9176CC] (AR v2)
Copy OK
Track 4
Filename C:\Program Files (x86)\Exact Audio Copy\Flac\04. On Your Face.wav
Pre-gap length 0:00:00.15
Peak level 99.9 %
Extraction speed 1.4 X
Track quality 99.9 %
Test CRC 240348D4
Copy CRC 240348D4
Accurately ripped (confidence 2) [1B7445A9] (AR v2)
Copy OK
Track 5
Filename C:\Program Files (x86)\Exact Audio Copy\Flac\05. Biyo.wav
Pre-gap length 0:00:00.03
Peak level 99.6 %
Extraction speed 1.6 X
Track quality 100.0 %
Test CRC CD42FC8B
Copy CRC CD42FC8B
Accurately ripped (confidence 2) [E8756C0F] (AR v2)
Copy OK
Track 6
Filename C:\Program Files (x86)\Exact Audio Copy\Flac\06. Imagination.wav
Peak level 99.8 %
Extraction speed 1.8 X
Track quality 100.0 %
Test CRC FAAEE20D
Copy CRC FAAEE20D
Accurately ripped (confidence 2) [1C420675] (AR v2)
Copy OK
Track 7
Filename C:\Program Files (x86)\Exact Audio Copy\Flac\07. Spirit.wav
Pre-gap length 0:00:00.38
Peak level 99.8 %
Extraction speed 1.8 X
Track quality 100.0 %
Test CRC F6A93692
Copy CRC F6A93692
Accurately ripped (confidence 2) [2E8A5EDF] (AR v2)
Copy OK
Track 8
Filename C:\Program Files (x86)\Exact Audio Copy\Flac\08. Burnin' Bush (Shout It On The Mountain mix).wav
Pre-gap length 0:00:00.44
Peak level 71.7 %
Extraction speed 2.0 X
Track quality 100.0 %
Test CRC F31A7012
Copy CRC F31A7012
Accurately ripped (confidence 2) [6F47319D] (AR v2)
Copy OK
Track 9
Filename C:\Program Files (x86)\Exact Audio Copy\Flac\09. Serpentine Fire.wav
Pre-gap length 0:00:00.03
Peak level 94.3 %
Extraction speed 1.7 X
Track quality 99.9 %
Test CRC A5F1A4CB
Copy CRC A5F1A4CB
Accurately ripped (confidence 2) [8292FE4F] (AR v2)
Copy OK
Track 10
Filename C:\Program Files (x86)\Exact Audio Copy\Flac\10. Fantasy.wav
Peak level 94.2 %
Extraction speed 2.0 X
Track quality 100.0 %
Test CRC 422EC4EF
Copy CRC 422EC4EF
Accurately ripped (confidence 2) [85BBACEC] (AR v2)
Copy OK
Track 11
Filename C:\Program Files (x86)\Exact Audio Copy\Flac\11. Love's Holiday.wav
Pre-gap length 0:00:00.14
Peak level 94.2 %
Extraction speed 1.9 X
Track quality 99.9 %
Test CRC 4A5B90FA
Copy CRC 4A5B90FA
Accurately ripped (confidence 2) [44F098CF] (AR v2)
Copy OK
Track 12
Filename C:\Program Files (x86)\Exact Audio Copy\Flac\12. Ponta de Areia (Brazilian Rhyme).wav
Pre-gap length 0:00:00.24
Peak level 27.9 %
Extraction speed 1.4 X
Track quality 100.0 %
Test CRC 6FE3484D
Copy CRC 6FE3484D
Accurately ripped (confidence 2) [E63094AE] (AR v2)
Copy OK
Track 13
Filename C:\Program Files (x86)\Exact Audio Copy\Flac\13. I'll Write A Song For You.wav
Pre-gap length 0:00:00.19
Peak level 94.2 %
Extraction speed 2.3 X
Track quality 100.0 %
Test CRC C3C45BCD
Copy CRC C3C45BCD
Accurately ripped (confidence 2) [4B9D1448] (AR v2)
Copy OK
Track 14
Filename C:\Program Files (x86)\Exact Audio Copy\Flac\14. Jupiter.wav
Peak level 90.4 %
Extraction speed 1.9 X
Track quality 99.9 %
Test CRC 871F81D0
Copy CRC 871F81D0
Accurately ripped (confidence 2) [6CF41273] (AR v2)
Copy OK
Track 15
Filename C:\Program Files (x86)\Exact Audio Copy\Flac\15. Be Ever Wonderful.wav
Pre-gap length 0:00:00.54
Peak level 100.0 %
Extraction speed 2.4 X
Track quality 100.0 %
Test CRC 2BB58D8F
Copy CRC 2BB58D8F
Accurately ripped (confidence 2) [D76DAD85] (AR v2)
Copy OK
All tracks accurately ripped
No errors occurred
End of status report
---- CUETools DB Plugin V2.1.6
[CTDB TOCID: YnVH3Vco5ifBPYRsB44G8cPLA2E-] found
Submit result: YnVH3Vco5ifBPYRsB44G8cPLA2E- has been confirmed
Track | CTDB Status
1 | (7/7) Accurately ripped
2 | (7/7) Accurately ripped
3 | (7/7) Accurately ripped
4 | (7/7) Accurately ripped
5 | (7/7) Accurately ripped
6 | (7/7) Accurately ripped
7 | (7/7) Accurately ripped
8 | (7/7) Accurately ripped
9 | (7/7) Accurately ripped
10 | (7/7) Accurately ripped
11 | (7/7) Accurately ripped
12 | (7/7) Accurately ripped
13 | (7/7) Accurately ripped
14 | (7/7) Accurately ripped
15 | (7/7) Accurately ripped
==== Log checksum BFB539CDA7FD3B7468ABCBFD9653017D2861C03F8E8D2C4BA21303FB0FCB3F59 ====
 
Содержание индексной карты (.CUE)
REM GENRE R&B
REM DATE 2009
REM DISCID B10E690F
REM COMMENT "ExactAudioCopy v1.3"
PERFORMER "Earth, Wind & Fire"
TITLE "The Real... Earth, Wind & Fire (Disc 2)"
REM COMPOSER ""
FILE "01. Got To Get You Into My Life.wav" WAVE
TRACK 01 AUDIO
TITLE "Got To Get You Into My Life"
PERFORMER "Earth, Wind & Fire"
REM COMPOSER ""
INDEX 01 00:00:00
FILE "02. Love Music.wav" WAVE
TRACK 02 AUDIO
TITLE "Love Music"
PERFORMER "Earth, Wind & Fire"
REM COMPOSER ""
INDEX 01 00:00:00
TRACK 03 AUDIO
TITLE "Saturday Nite"
PERFORMER "Earth, Wind & Fire"
REM COMPOSER ""
INDEX 00 03:53:74
FILE "03. Saturday Nite.wav" WAVE
INDEX 01 00:00:00
TRACK 04 AUDIO
TITLE "On Your Face"
PERFORMER "Earth, Wind & Fire"
REM COMPOSER ""
INDEX 00 04:02:44
FILE "04. On Your Face.wav" WAVE
INDEX 01 00:00:00
TRACK 05 AUDIO
TITLE "Biyo"
PERFORMER "Earth, Wind & Fire"
REM COMPOSER ""
INDEX 00 04:33:61
FILE "05. Biyo.wav" WAVE
INDEX 01 00:00:00
FILE "06. Imagination.wav" WAVE
TRACK 06 AUDIO
TITLE "Imagination"
PERFORMER "Earth, Wind & Fire"
REM COMPOSER ""
INDEX 01 00:00:00
TRACK 07 AUDIO
TITLE "Spirit"
PERFORMER "Earth, Wind & Fire"
REM COMPOSER ""
INDEX 00 05:16:09
FILE "07. Spirit.wav" WAVE
INDEX 01 00:00:00
TRACK 08 AUDIO
TITLE "Burnin' Bush (Shout It On The Mountain mix)"
PERFORMER "Earth, Wind & Fire"
REM COMPOSER ""
INDEX 00 03:13:11
FILE "08. Burnin' Bush (Shout It On The Mountain mix).wav" WAVE
INDEX 01 00:00:00
TRACK 09 AUDIO
TITLE "Serpentine Fire"
PERFORMER "Earth, Wind & Fire"
REM COMPOSER ""
INDEX 00 05:08:72
FILE "09. Serpentine Fire.wav" WAVE
INDEX 01 00:00:00
FILE "10. Fantasy.wav" WAVE
TRACK 10 AUDIO
TITLE "Fantasy"
PERFORMER "Earth, Wind & Fire"
REM COMPOSER ""
INDEX 01 00:00:00
TRACK 11 AUDIO
TITLE "Love's Holiday"
PERFORMER "Earth, Wind & Fire"
REM COMPOSER ""
INDEX 00 04:37:64
FILE "11. Love's Holiday.wav" WAVE
INDEX 01 00:00:00
TRACK 12 AUDIO
TITLE "Ponta de Areia (Brazilian Rhyme)"
PERFORMER "Earth, Wind & Fire"
REM COMPOSER ""
INDEX 00 04:22:44
FILE "12. Ponta de Areia (Brazilian Rhyme).wav" WAVE
INDEX 01 00:00:00
TRACK 13 AUDIO
TITLE "I'll Write A Song For You"
PERFORMER "Earth, Wind & Fire"
REM COMPOSER ""
INDEX 00 00:53:53
FILE "13. I'll Write A Song For You.wav" WAVE
INDEX 01 00:00:00
FILE "14. Jupiter.wav" WAVE
TRACK 14 AUDIO
TITLE "Jupiter"
PERFORMER "Earth, Wind & Fire"
REM COMPOSER ""
INDEX 01 00:00:00
TRACK 15 AUDIO
TITLE "Be Ever Wonderful"
PERFORMER "Earth, Wind & Fire"
REM COMPOSER ""
INDEX 00 03:11:37
FILE "15. Be Ever Wonderful.wav" WAVE
INDEX 01 00:00:00
 
CD 3 (71:31)
Треклист:
01. September (3:36)
02. Boogie Wonderland (with The Emotions) (4:49)
03. Let's Grrove (5:38)
04. In The Stone (4:50)
05. Can't Let Go (3:30)
06. After The Love Is Gone (4:40)
07. And Love Goes On (4:06)
08. Rock That! (3:08)
09. Fall In Love With Me (5:53)
10. Side By Side (5:57)
11. Wanna Be With You (4:37)
12. Where Have All The Flowers Gone (4:53)
13. Gratitude (3:30)
14. Reasons (5:00)
15. Kalimba Story / Sing A Message To You (Live) (7:24)
 
 
Лог создания рипа
Exact Audio Copy V1.3 from 2. September 2016
EAC extraction logfile from 25. July 2017, 18:43
Earth, Wind & Fire / The Real... Earth, Wind & Fire (Disc 3)
Used drive : TSSTcorpCDDVDW SE-208AB Adapter: 2 ID: 0
Read mode : Secure
Utilize accurate stream : Yes
Defeat audio cache : Yes
Make use of C2 pointers : No
Read offset correction : 6
Overread into Lead-In and Lead-Out : No
Fill up missing offset samples with silence : Yes
Delete leading and trailing silent blocks : No
Null samples used in CRC calculations : Yes
Used interface : Installed external ASPI interface
Gap handling : Appended to previous track
Used output format : User Defined Encoder
Selected bitrate : 768 kBit/s
Quality : High
Add ID3 tag : No
Command line compressor : C:\Program Files (x86)\Exact Audio Copy\Flac\flac.exe
Additional command line options : -8 -V -T "ARTIST=%artist%" -T "TITLE=%title%" -T "ALBUM=%albumtitle%" -T "DATE=%year%" -T "TRACKNUMBER=%tracknr%" -T "GENRE=%genre%" -T "COMMENT=%comment%" -T "BAND=%albuminterpret%" -T "ALBUMARTIST=%albuminterpret%" -T "COMPOSER=%composer%" %haslyrics%--tag-from-file=LYRICS="%lyricsfile%"%haslyrics% -T "DISCNUMBER=%cdnumber%" -T "TOTALDISCS=%totalcds%" -T "TOTALTRACKS=%numtracks%" %hascover%--picture="%coverfile%"%hascover% %source% -o %dest%
TOC of the extracted CD
Track | Start | Length | Start sector | End sector
---------------------------------------------------------
1 | 0:00.00 | 3:35.70 | 0 | 16194
2 | 3:35.70 | 4:49.26 | 16195 | 37895
3 | 8:25.21 | 5:37.47 | 37896 | 63217
4 | 14:02.68 | 4:50.24 | 63218 | 84991
5 | 18:53.17 | 3:29.58 | 84992 | 100724
6 | 22:23.00 | 4:40.18 | 100725 | 121742
7 | 27:03.18 | 4:06.05 | 121743 | 140197
8 | 31:09.23 | 3:07.69 | 140198 | 154291
9 | 34:17.17 | 5:52.68 | 154292 | 180759
10 | 40:10.10 | 5:57.35 | 180760 | 207569
11 | 46:07.45 | 4:37.05 | 207570 | 228349
12 | 50:44.50 | 4:53.10 | 228350 | 250334
13 | 55:37.60 | 3:29.47 | 250335 | 266056
14 | 59:07.32 | 4:59.54 | 266057 | 288535
15 | 64:07.11 | 7:23.42 | 288536 | 321802
Track 1
Filename C:\Program Files (x86)\Exact Audio Copy\Flac\01. September.wav
Pre-gap length 0:00:02.00
Peak level 96.6 %
Extraction speed 1.2 X
Track quality 100.0 %
Test CRC C47E0841
Copy CRC C47E0841
Accurately ripped (confidence 2) [4C03022F] (AR v2)
Copy OK
Track 2
Filename C:\Program Files (x86)\Exact Audio Copy\Flac\02. Boogie Wonderland (with The Emotions).wav
Pre-gap length 0:00:00.26
Peak level 99.8 %
Extraction speed 1.4 X
Track quality 100.0 %
Test CRC 0AE556DF
Copy CRC 0AE556DF
Accurately ripped (confidence 2) [B48C5F6B] (AR v2)
Copy OK
Track 3
Filename C:\Program Files (x86)\Exact Audio Copy\Flac\03. Let's Grrove.wav
Peak level 89.1 %
Extraction speed 1.4 X
Track quality 99.9 %
Test CRC D205DFB5
Copy CRC D205DFB5
Accurately ripped (confidence 2) [DE3ABA3E] (AR v2)
Copy OK
Track 4
Filename C:\Program Files (x86)\Exact Audio Copy\Flac\04. In The Stone.wav
Pre-gap length 0:00:00.27
Peak level 99.9 %
Extraction speed 1.7 X
Track quality 100.0 %
Test CRC 34B59593
Copy CRC 34B59593
Accurately ripped (confidence 2) [0572CBD7] (AR v2)
Copy OK
Track 5
Filename C:\Program Files (x86)\Exact Audio Copy\Flac\05. Can't Let Go.wav
Pre-gap length 0:00:01.56
Peak level 99.8 %
Extraction speed 1.7 X
Track quality 100.0 %
Test CRC B11D5288
Copy CRC B11D5288
Accurately ripped (confidence 2) [7A85F2EF] (AR v2)
Copy OK
Track 6
Filename C:\Program Files (x86)\Exact Audio Copy\Flac\06. After The Love Is Gone.wav
Pre-gap length 0:00:00.38
Peak level 99.8 %
Extraction speed 1.8 X
Track quality 100.0 %
Test CRC 56C2DF97
Copy CRC 56C2DF97
Accurately ripped (confidence 2) [F6E103A0] (AR v2)
Copy OK
Track 7
Filename C:\Program Files (x86)\Exact Audio Copy\Flac\07. And Love Goes On.wav
Pre-gap length 0:00:01.47
Peak level 99.6 %
Extraction speed 1.9 X
Track quality 100.0 %
Test CRC 5C7E9B70
Copy CRC 5C7E9B70
Accurately ripped (confidence 2) [09D85934] (AR v2)
Copy OK
Track 8
Filename C:\Program Files (x86)\Exact Audio Copy\Flac\08. Rock That!.wav
Pre-gap length 0:00:00.06
Peak level 96.7 %
Extraction speed 1.6 X
Track quality 99.9 %
Test CRC 1D15FDE5
Copy CRC 1D15FDE5
Accurately ripped (confidence 2) [7143171C] (AR v2)
Copy OK
Track 9
Filename C:\Program Files (x86)\Exact Audio Copy\Flac\09. Fall In Love With Me.wav
Pre-gap length 0:00:00.10
Peak level 99.6 %
Extraction speed 1.9 X
Track quality 99.9 %
Test CRC E5558820
Copy CRC E5558820
Accurately ripped (confidence 2) [2F134202] (AR v2)
Copy OK
Track 10
Filename C:\Program Files (x86)\Exact Audio Copy\Flac\10. Side By Side.wav
Pre-gap length 0:00:00.21
Peak level 99.6 %
Extraction speed 2.2 X
Track quality 100.0 %
Test CRC B5AC6BA3
Copy CRC B5AC6BA3
Accurately ripped (confidence 2) [F03FE642] (AR v2)
Copy OK
Track 11
Filename C:\Program Files (x86)\Exact Audio Copy\Flac\11. Wanna Be With You.wav
Pre-gap length 0:00:00.50
Peak level 83.9 %
Extraction speed 2.3 X
Track quality 100.0 %
Test CRC 06AAAFDF
Copy CRC 06AAAFDF
Accurately ripped (confidence 2) [44D1AFE0] (AR v2)
Copy OK
Track 12
Filename C:\Program Files (x86)\Exact Audio Copy\Flac\12. Where Have All The Flowers Gone.wav
Pre-gap length 0:00:01.08
Peak level 98.8 %
Extraction speed 2.1 X
Track quality 99.9 %
Test CRC C01681D1
Copy CRC C01681D1
Accurately ripped (confidence 2) [57BDB286] (AR v2)
Copy OK
Track 13
Filename C:\Program Files (x86)\Exact Audio Copy\Flac\13. Gratitude.wav
Pre-gap length 0:00:00.35
Peak level 94.2 %
Extraction speed 2.3 X
Track quality 100.0 %
Test CRC 7632E0EB
Copy CRC 7632E0EB
Accurately ripped (confidence 2) [2DC82A7F] (AR v2)
Copy OK
Track 14
Filename C:\Program Files (x86)\Exact Audio Copy\Flac\14. Reasons.wav
Pre-gap length 0:00:01.15
Peak level 82.0 %
Extraction speed 2.5 X
Track quality 100.0 %
Test CRC A5AE528C
Copy CRC A5AE528C
Accurately ripped (confidence 2) [34DCAE1A] (AR v2)
Copy OK
Track 15
Filename C:\Program Files (x86)\Exact Audio Copy\Flac\15. Kalimba Story , Sing A Message To You (Live).wav
Pre-gap length 0:00:00.16
Peak level 79.5 %
Extraction speed 2.5 X
Track quality 99.9 %
Test CRC 0AEA1199
Copy CRC 0AEA1199
Accurately ripped (confidence 2) [DD52C05D] (AR v2)
Copy OK
All tracks accurately ripped
No errors occurred
End of status report
---- CUETools DB Plugin V2.1.6
[CTDB TOCID: jHjD4KLX_92uVkomaGPZmrpfdNE-] found
Submit result: jHjD4KLX_92uVkomaGPZmrpfdNE- has been confirmed
Track | CTDB Status
1 | (7/7) Accurately ripped
2 | (7/7) Accurately ripped
3 | (7/7) Accurately ripped
4 | (7/7) Accurately ripped
5 | (7/7) Accurately ripped
6 | (7/7) Accurately ripped
7 | (7/7) Accurately ripped
8 | (7/7) Accurately ripped
9 | (7/7) Accurately ripped
10 | (7/7) Accurately ripped
11 | (7/7) Accurately ripped
12 | (7/7) Accurately ripped
13 | (7/7) Accurately ripped
14 | (7/7) Accurately ripped
15 | (7/7) Accurately ripped
==== Log checksum C51544DE5AECA933128C12A54DE7A4AF774E09CD168DF861583092A62333539F ====
 
Содержание индексной карты (.CUE)
REM GENRE Jazz
REM DATE 2017
REM DISCID DB10C20F
REM COMMENT "ExactAudioCopy v1.3"
PERFORMER "Earth, Wind & Fire"
TITLE "The Real... Earth, Wind & Fire (Disc 3)"
REM COMPOSER ""
FILE "01. September.wav" WAVE
TRACK 01 AUDIO
TITLE "September"
PERFORMER "Earth, Wind & Fire"
REM COMPOSER ""
INDEX 01 00:00:00
TRACK 02 AUDIO
TITLE "Boogie Wonderland (with The Emotions)"
PERFORMER "Earth, Wind & Fire"
REM COMPOSER ""
INDEX 00 03:35:44
FILE "02. Boogie Wonderland (with The Emotions).wav" WAVE
INDEX 01 00:00:00
FILE "03. Let's Grrove.wav" WAVE
TRACK 03 AUDIO
TITLE "Let's Grrove"
PERFORMER "Earth, Wind & Fire"
REM COMPOSER ""
INDEX 01 00:00:00
TRACK 04 AUDIO
TITLE "In The Stone"
PERFORMER "Earth, Wind & Fire"
REM COMPOSER ""
INDEX 00 05:37:20
FILE "04. In The Stone.wav" WAVE
INDEX 01 00:00:00
TRACK 05 AUDIO
TITLE "Can't Let Go"
PERFORMER "Earth, Wind & Fire"
REM COMPOSER ""
INDEX 00 04:48:43
FILE "05. Can't Let Go.wav" WAVE
INDEX 01 00:00:00
TRACK 06 AUDIO
TITLE "After The Love Is Gone"
PERFORMER "Earth, Wind & Fire"
REM COMPOSER ""
INDEX 00 03:29:20
FILE "06. After The Love Is Gone.wav" WAVE
INDEX 01 00:00:00
TRACK 07 AUDIO
TITLE "And Love Goes On"
PERFORMER "Earth, Wind & Fire"
REM COMPOSER ""
INDEX 00 04:38:46
FILE "07. And Love Goes On.wav" WAVE
INDEX 01 00:00:00
TRACK 08 AUDIO
TITLE "Rock That!"
PERFORMER "Earth, Wind & Fire"
REM COMPOSER ""
INDEX 00 04:05:74
FILE "08. Rock That!.wav" WAVE
INDEX 01 00:00:00
TRACK 09 AUDIO
TITLE "Fall In Love With Me"
PERFORMER "Earth, Wind & Fire"
REM COMPOSER ""
INDEX 00 03:07:59
FILE "09. Fall In Love With Me.wav" WAVE
INDEX 01 00:00:00
TRACK 10 AUDIO
TITLE "Side By Side"
PERFORMER "Earth, Wind & Fire"
REM COMPOSER ""
INDEX 00 05:52:47
FILE "10. Side By Side.wav" WAVE
INDEX 01 00:00:00
TRACK 11 AUDIO
TITLE "Wanna Be With You"
PERFORMER "Earth, Wind & Fire"
REM COMPOSER ""
INDEX 00 05:56:60
FILE "11. Wanna Be With You.wav" WAVE
INDEX 01 00:00:00
TRACK 12 AUDIO
TITLE "Where Have All The Flowers Gone"
PERFORMER "Earth, Wind & Fire"
REM COMPOSER ""
INDEX 00 04:35:72
FILE "12. Where Have All The Flowers Gone.wav" WAVE
INDEX 01 00:00:00
TRACK 13 AUDIO
TITLE "Gratitude"
PERFORMER "Earth, Wind & Fire"
REM COMPOSER ""
INDEX 00 04:52:50
FILE "13. Gratitude.wav" WAVE
INDEX 01 00:00:00
TRACK 14 AUDIO
TITLE "Reasons"
PERFORMER "Earth, Wind & Fire"
REM COMPOSER ""
INDEX 00 03:28:32
FILE "14. Reasons.wav" WAVE
INDEX 01 00:00:00
TRACK 15 AUDIO
TITLE "Kalimba Story / Sing A Message To You (Live)"
PERFORMER "Earth, Wind & Fire"
REM COMPOSER ""
INDEX 00 04:59:38
FILE "15. Kalimba Story , Sing A Message To You (Live).wav" WAVE
INDEX 01 00:00:00
Приватный:
Нет (DHT включён)
Размер:
1.32 Гб (1,417,913,006 байт) » файлов: 65
Участники:
0 раздают, 0 качают (0 участников всего)
Внешние участники:
3 раздают, 1 качают (4 участников всего) [ Обновить ]
No seeders - write a personal message to user M0p94ok. Нет сидеров - пишите личное сообщение пользователю M0p94ok.
14:18
60
Нет комментариев. Ваш будет первым!