Поиск

(Funk, Soul, R&B) [CD] Kool & The Gang - Best Of - 1985, FLAC (image+.cue), lossless

(Funk, Soul, R&B) [CD] Kool & The Gang - Best Of - 1985, FLAC (image+.cue), lossless
Треклист:
Kool & The Gang / Best Of
Жанр: Funk, Soul, R&B
Носитель: CD
Страна-производитель диска (релиза): West Germany
Год издания: 1985
Издатель (лейбл): METRONOME MUSIK GMBH.
Номер по каталогу: 827 682+2
Страна исполнителя (группы): USA
Аудиокодек: FLAC (*.flac)
Тип рипа: image+.cue
Битрейт аудио: lossless
Продолжительность: 00:46:38
Источник (релизер): mart64val
Наличие сканов в содержимом раздачи: да
Треклист:
Kool & The Gang - Best Of 1985
01. Ladies' Night [0:06:26.72]
02. Open Sesame [0:08:28.65]
03. Spirit Of The Boogie [0:03:34.50]
04. Kool & The Gang [0:02:56.30]
05. Hollywood Swinging [0:04:38.68]
06. Funky Stuff [0:03:00.15]
07. More Funky Stuff [0:02:53.17]
08. Jungle Boogie [0:03:05.05]
09. Caribean Festival [0:03:42.43]
10. Love And Understanding [0:03:32.27]
11. Summer Madness [0:04:18.05]
 
Лог создания рипа
Exact Audio Copy V1.0 beta 3 from 29. August 2011
Отчёт EAC об извлечении, выполненном 4. августа 2017, 20:47
Kool & The Gang / Best Of
Дисковод: Optiarc DVD RW AD-7280S Adapter: 1 ID: 0
Режим чтения : Достоверность
Использование точного потока : Да
Отключение кэша аудио : Да
Использование указателей C2 : Нет
Коррекция смещения при чтении : 48
Способность читать области Lead-in и Lead-out : Нет
Заполнение пропущенных сэмплов тишиной : Да
Удаление блоков с тишиной в начале и конце : Нет
При вычислениях CRC использовались нулевые сэмплы : Да
Интерфейс : Встроенный Win32-интерфейс для Win NT/2000
Выходной формат : Пользовательский кодировщик
Выбранный битрейт : 768 kBit/s
Качество : Высокий
Добавление ID3-тега : Нет
Утилита сжатия : C:\Program Files (x86)\Exact Audio Copy\FLAC\FLAC.EXE
Дополнительные параметры : -6 -V -T "ARTIST=%artist%" -T "TITLE=%title%" -T "ALBUM=%albumtitle%" -T "DATE=%year%" -T "TRACKNUMBER=%tracknr%" -T "GENRE=%genre%" -T "COMMENT=%comment%" -T "BAND=%albuminterpret%" -T "ALBUMARTIST=%albuminterpret%" -T "COMPOSER=%composer%" %haslyrics%--tag-from-file=LYRICS="%lyricsfile%"%haslyrics% -T "DISCNUMBER=%cdnumber%" -T "TOTALDISCS=%totalcds%" -T "TOTALTRACKS=%numtracks%" %hascover%--picture="%coverfile%"%hascover% %source% -o %dest%
TOC извлечённого CD
Трек | Старт | Длительность | Начальный сектор | Конечный сектор
---------------------------------------------------------------------
1 | 0:00.33 | 6:26.72 | 33 | 29054
2 | 6:27.30 | 8:28.65 | 29055 | 67219
3 | 14:56.20 | 3:34.50 | 67220 | 83319
4 | 18:30.70 | 2:56.30 | 83320 | 96549
5 | 21:27.25 | 4:38.68 | 96550 | 117467
6 | 26:06.18 | 3:00.15 | 117468 | 130982
7 | 29:06.33 | 2:53.17 | 130983 | 143974
8 | 31:59.50 | 3:05.05 | 143975 | 157854
9 | 35:04.55 | 3:42.43 | 157855 | 174547
10 | 38:47.23 | 3:32.27 | 174548 | 190474
11 | 42:19.50 | 4:18.05 | 190475 | 209829
Характеристики диапазона извлечения и сообщения об ошибках
Выбранный диапазон
Имя файла C:\Users\User\Desktop\РАЗДАЧИ\Kool & The Gang-Best Of (1985)\Kool & The Gang - Best Of.wav
Пиковый уровень 93.3 %
Скорость извлечения 2.7 X
Качество диапазона 99.9 %
CRC теста E9C3BD11
CRC копии E9C3BD11
Копирование... OK
Ошибок не произошло
AccurateRip: сводка
Трек 1 : извлечено точно (доверие 4) [F7B60924] (AR v2)
Трек 2 : извлечено точно (доверие 5) [F0B3356E] (AR v2)
Трек 3 : извлечено точно (доверие 5) [E13E183D] (AR v2)
Трек 4 : извлечено точно (доверие 5) [67156791] (AR v2)
Трек 5 : извлечено точно (доверие 4) [F44625E3] (AR v2)
Трек 6 : извлечено точно (доверие 5) [809B8F66] (AR v2)
Трек 7 : извлечено точно (доверие 5) [C3484245] (AR v2)
Трек 8 : извлечено точно (доверие 6) [A344BDE9] (AR v2)
Трек 9 : извлечено точно (доверие 6) [1BBACF8A] (AR v2)
Трек 10 : извлечено точно (доверие 6) [038B16E4] (AR v2)
Трек 11 : извлечено точно (доверие 6) [C10EACD5] (AR v2)
Все треки извлечены точно
Конец отчёта
==== Контрольная сумма отчёта E4B65E93331128E11CE2CFAAA0C07561572D12D6ED74C1D164CA20EE7C549B55 ====
Приватный:
Нет (DHT включён)
Размер:
328.10 Мб (344,034,523 байт) » файлов: 10
Участники:
0 раздают, 0 качают (0 участников всего)
Внешние участники:
1 раздают, 0 качают (1 участников всего) [ Обновить ]
Есть вопросы - пишите личное сообщение пользователю M0p94ok.
14:19
62
Нет комментариев. Ваш будет первым!