Поиск

(Funk, Soul, R&B) [CD] One Way Featuring Al Hudson - One Way Featuring Al Hudson (1980) - 2013, FLAC (image+.cue), lossless

Треклист:
One Way Featuring Al Hudson - One Way Featuring Al Hudson (1980) Жанр: Funk, Soul, R&B
Носитель: CD
Год издания: 2013
Издатель (лейбл): PTG Records
Номер по каталогу: PTG 34151
Аудиокодек: FLAC (*.flac)
Тип рипа: image+.cue
Битрейт аудио: lossless
Продолжительность: 47:29
Rip by M@ce
Наличие сканов в содержимом раздачи: да
Треклист:
01. I'm In Love With Lovin' You (4:08)
02. Copy This (3:29)
03. Something In The Past (6:12)
04. Do Your Thang (6:27)
05. I Wanna Be With You (4:37)
06. Let's Go Out Tonite (3:56)
07. You're The One (3:16)
08. Pop It (8:00)
09. Tonight (Full Length Version) (7:23)
 
 
Credits
Artwork – Vartan
Electronic Drums [Syndrums] – John Brooks
Executive-Producer – Al Perkins
Horns – Gordon Camp, The Detroit Horns
Keyboards, Synthesizer – Gary Schunk, Leroy Hyter
Mastered By – Eddy Schreyer
Music By – One Way
Photography By – Michael Bryan
Producer, Arranged By – Al Hudson, Dave Roberson, Kevin McCord
Producer, Engineer – Richard Becker
Vocals – Angela Ward
 
Несколько слов на английском
Digitally re-mastered edition of the 1980 debut album from the R&B/Funk outfit. One Way was very popular in the late 1970's and throughout most of the 1980's. One Way was formed in 1979 in Detroit, Michigan as the newer incarnation of a band originally known as Soul Partners. The original members were Al Hudson, Alicia Myers, guitarists Dave Roberson and Cortez Harris, bassist Kevin McCord, drummer Gregory Green and keyboardist Jonathan Meadows. They first recorded as Al Hudson and the Partners, scoring an R&B hit on the ABC label called "You Can Do It" in 1979.

 
Лог создания рипа
Exact Audio Copy V1.3 from 2. September 2016
EAC extraction logfile from 1. August 2017, 7:07
One Way Featuring Al Hudson / One Way Featuring Al Hudson
Used drive : Memorex 52MAXX 3252AJ1 Adapter: 1 ID: 1
Read mode : Secure
Utilize accurate stream : Yes
Defeat audio cache : Yes
Make use of C2 pointers : No
Read offset correction : 6
Overread into Lead-In and Lead-Out : No
Fill up missing offset samples with silence : Yes
Delete leading and trailing silent blocks : No
Null samples used in CRC calculations : Yes
Used interface : Native Win32 interface for Win NT & 2000
Used output format : User Defined Encoder
Selected bitrate : 896 kBit/s
Quality : High
Add ID3 tag : No
Command line compressor : C:\Program Files (x86)\Exact Audio Copy\Flac\flac.exe
Additional command line options : %ishigh%-V -p -l 12 -b 4096 -m -e -r 8%ishigh%%islow%-5%islow% --replay-gain -T "ARTIST=%artist%" -T "ALBUM=%albumtitle%" -T "TITLE=%title%" -T "DATE=%year%" -T "TRACKNUMBER=%tracknr%" -T "GENRE=%genre%" -T "ENSEMBLE=%albuminterpret%" -T "ALBUMARTIST=%albumartist%" -T "COMPOSER=%albumcomposer%" -T "DISCNUMBER=%cdnumber%" -T "TOTALDISCS=%totalcds%" -T "TOTALTRACKS=%numtracks%" -T "SOURCEMEDIA=CD" -T "COMMENT=%comment%" %hascover%-T "PICTURE=%coverfile%"%hascover% %source%
TOC of the extracted CD
Track | Start | Length | Start sector | End sector
---------------------------------------------------------
1 | 0:00.00 | 4:08.30 | 0 | 18629
2 | 4:08.30 | 3:29.05 | 18630 | 34309
3 | 7:37.35 | 6:12.19 | 34310 | 62228
4 | 13:49.54 | 6:27.01 | 62229 | 91254
5 | 20:16.55 | 4:37.31 | 91255 | 112060
6 | 24:54.11 | 3:56.21 | 112061 | 129781
7 | 28:50.32 | 3:16.10 | 129782 | 144491
8 | 32:06.42 | 7:59.72 | 144492 | 180488
9 | 40:06.39 | 7:22.46 | 180489 | 213684
Range status and errors
Selected range
Filename C:\Users\M@ce\Music\Archives\Rips\Burn WAV\One Way Featuring Al Hudson - One Way Featuring Al Hudson.wav
Peak level 100.0 %
Extraction speed 8.9 X
Range quality 100.0 %
Test CRC 71496122
Copy CRC 71496122
Copy OK
No errors occurred
AccurateRip summary
Track 1 accurately ripped (confidence 8) [18AC4C15] (AR v2)
Track 2 accurately ripped (confidence 8) [0AF5CF94] (AR v2)
Track 3 accurately ripped (confidence 8) [2AC02F7D] (AR v2)
Track 4 accurately ripped (confidence 8) [D617A9B7] (AR v2)
Track 5 accurately ripped (confidence 8) [3B799BE5] (AR v2)
Track 6 accurately ripped (confidence 8) [55132663] (AR v2)
Track 7 accurately ripped (confidence 8) [F40A3A9A] (AR v2)
Track 8 accurately ripped (confidence 8) [A9FFD63A] (AR v2)
Track 9 accurately ripped (confidence 7) [4EECA958] (AR v2)
All tracks accurately ripped
End of status report
---- CUETools DB Plugin V2.1.6
[CTDB TOCID: DvRNpRapG8XDdaUwSa9cAbsiLKM-] database access error: The remote name could not be resolved: 'db.cuetools.net'
==== Log checksum 72ED579565365E1E924B46523FEEE30E04E88AE19FABF886208962361FA077FD ====
 
Содержание индексной карты (.CUE)
REM GENRE Soul
REM DATE 1980
REM DISCID 760B2109
REM COMMENT "ExactAudioCopy v1.3"
PERFORMER "One Way Featuring Al Hudson"
TITLE "One Way Featuring Al Hudson"
REM COMPOSER ""
FILE "One Way Featuring Al Hudson - One Way Featuring Al Hudson.flac" WAVE
TRACK 01 AUDIO
TITLE "I'm In Love With Lovin' You"
PERFORMER "One Way Featuring Al Hudson"
REM COMPOSER "Valeria O'Neal / Al Perkins / Dave Roberson"
INDEX 01 00:00:00
TRACK 02 AUDIO
TITLE "Copy This"
PERFORMER "One Way Featuring Al Hudson"
REM COMPOSER "Al Hudson / Kevin McCord / Al Perkins"
INDEX 00 04:06:30
INDEX 01 04:08:30
TRACK 03 AUDIO
TITLE "Something In The Past"
PERFORMER "One Way Featuring Al Hudson"
REM COMPOSER "Cuba Gregory / Al Hudson / Al Perkins"
INDEX 00 07:35:36
INDEX 01 07:37:35
TRACK 04 AUDIO
TITLE "Do Your Thang"
PERFORMER "One Way Featuring Al Hudson"
REM COMPOSER "Kevin McCord / Alicia Myers"
INDEX 00 13:47:54
INDEX 01 13:49:54
TRACK 05 AUDIO
TITLE "I Wanna Be With You"
PERFORMER "One Way Featuring Al Hudson"
REM COMPOSER "Ben Atkins"
INDEX 00 20:14:55
INDEX 01 20:16:55
TRACK 06 AUDIO
TITLE "Let's Go Out Tonite"
PERFORMER "One Way Featuring Al Hudson"
REM COMPOSER "Kevin McCord / Al Perkins"
INDEX 00 24:52:11
INDEX 01 24:54:11
TRACK 07 AUDIO
TITLE "You're The One"
PERFORMER "One Way Featuring Al Hudson"
REM COMPOSER "Kevin McCord"
INDEX 00 28:48:32
INDEX 01 28:50:32
TRACK 08 AUDIO
TITLE "Pop It"
PERFORMER "One Way Featuring Al Hudson"
REM COMPOSER "Al Hudson / Kevin McCord"
INDEX 00 32:04:42
INDEX 01 32:06:42
TRACK 09 AUDIO
TITLE "Tonight (Full Length Version)"
PERFORMER "One Way Featuring Al Hudson"
REM COMPOSER "Kevin McCord / Alicia Myers"
INDEX 00 40:04:39
INDEX 01 40:06:39
Приватный:
Нет (DHT включён)
Размер:
337.65 Мб (354,052,285 байт) » файлов: 10
Участники:
0 раздают, 0 качают (0 участников всего)
Внешние участники:
5 раздают, 1 качают (6 участников всего) [ Обновить ]
Есть вопросы - пишите личное сообщение пользователю M0p94ok.
14:20
103
Нет комментариев. Ваш будет первым!