Поиск

(Funk, Soul) [CD] Chocolate Milk - Chocolate Milk (1976) - 2013, FLAC (image+.cue), lossless

(Funk, Soul) [CD] Chocolate Milk - Chocolate Milk (1976) - 2013, FLAC (image+.cue), lossless
Треклист:
Chocolate Milk - Chocolate Milk (1976) Жанр: Funk, Soul
Носитель: CD
Год издания: 2013
Издатель (лейбл): Funky Town Grooves
Номер по каталогу: FTG-350
Аудиокодек: FLAC (*.flac)
Тип рипа: image+.cue
Битрейт аудио: lossless
Продолжительность: 48:55
Rip by M@ce
Наличие сканов в содержимом раздачи: да
Треклист:
01. Never Ever Do Without You (3:47)
02. How About Love (5:51)
03. Spread a Little Love (4:57)
04. You've Got Your Spell on Me (3:08)
05. Let Music Take Your Mind (4:23)
06. Crazy About You (3:30)
07. Party Happy (3:14)
08. Running Away (3:44)
09. Pluck It (5:19)
10. Grand Theft (7″) (3:35)
11. Girl Calling (7″) (3:55)
12. Say Wont'Cha (7″) (3:31)
 
 
Об альбоме (сборнике)
With influences ranging from the Meters to Kool & the Gang, New Orleans' Chocolate Milk let the funk flow on their self-titled sophomore album of 1976. No in-depth discussion of the history of African-American music would be complete without some mention of New Orleans, which was not only the birthplace of jazz €"it was also an important city for soul, funk, zydeco and the blues. The Crescent City had a rich R&B scene in the 1950s and 1960s, boasting expressive artists like Professor Longhair, Fats Domino, Dr. John, Irma Thomas, the Meters, Ernie K-Doe, Lee Dorsey, Chris Kenner, the Neville Brothers and Aaron Neville. So when New Orleans-based funksters Chocolate Milk came together 39 years ago in 1974, they had an incredibly rich heritage to draw upon. But as this reissue demonstrates, Chocolate Milk brought something unorthodox to New Orleans' R&B scene €"and they never went out of their way to emulate their Crescent City peers. 'FunkyTownGrooves' expanded 2013 edition of Chocolate Milk offers three bonus tracks: the 7" Single versions of 'Girl Callin', 'Say Won't Cha' and 'Grand Theft', all of which are energetic funk grooves. 'Girl Callin', which was one of Chocolate Milk's biggest hits and reached #14 on Billboard's R&B singles chart, and 'Grand Theft' are both from Chocolate Milk's - We're All In This Together album. And 'Say Won't Cha' (which made it to #39).

 
Лог создания рипа
Exact Audio Copy V1.3 from 2. September 2016
EAC extraction logfile from 22. June 2017, 3:46
Chocolate Milk / Chocolate Milk [Expanded Edition]
Used drive : Memorex 52MAXX 3252AJ1 Adapter: 1 ID: 1
Read mode : Secure
Utilize accurate stream : Yes
Defeat audio cache : Yes
Make use of C2 pointers : No
Read offset correction : 6
Overread into Lead-In and Lead-Out : No
Fill up missing offset samples with silence : Yes
Delete leading and trailing silent blocks : No
Null samples used in CRC calculations : Yes
Used interface : Native Win32 interface for Win NT & 2000
Used output format : User Defined Encoder
Selected bitrate : 896 kBit/s
Quality : High
Add ID3 tag : No
Command line compressor : C:\Program Files (x86)\Exact Audio Copy\Flac\flac.exe
Additional command line options : %ishigh%-V -p -l 12 -b 4096 -m -e -r 8%ishigh%%islow%-5%islow% --replay-gain -T "ARTIST=%artist%" -T "ALBUM=%albumtitle%" -T "TITLE=%title%" -T "DATE=%year%" -T "TRACKNUMBER=%tracknr%" -T "GENRE=%genre%" -T "ENSEMBLE=%albuminterpret%" -T "ALBUMARTIST=%albumartist%" -T "COMPOSER=%albumcomposer%" -T "DISCNUMBER=%cdnumber%" -T "TOTALDISCS=%totalcds%" -T "TOTALTRACKS=%numtracks%" -T "SOURCEMEDIA=CD" -T "COMMENT=%comment%" %hascover%-T "PICTURE=%coverfile%"%hascover% %source%
TOC of the extracted CD
Track | Start | Length | Start sector | End sector
---------------------------------------------------------
1 | 0:00.00 | 3:47.30 | 0 | 17054
2 | 3:47.30 | 5:50.66 | 17055 | 43370
3 | 9:38.21 | 4:57.12 | 43371 | 65657
4 | 14:35.33 | 3:07.53 | 65658 | 79735
5 | 17:43.11 | 4:22.66 | 79736 | 99451
6 | 22:06.02 | 3:30.17 | 99452 | 115218
7 | 25:36.19 | 3:14.25 | 115219 | 129793
8 | 28:50.44 | 3:44.02 | 129794 | 146595
9 | 32:34.46 | 5:19.31 | 146596 | 170551
10 | 37:54.02 | 3:34.71 | 170552 | 186672
11 | 41:28.73 | 3:55.34 | 186673 | 204331
12 | 45:24.32 | 3:30.50 | 204332 | 220131
Range status and errors
Selected range
Filename C:\Users\M@ce\Music\Archives\Rips\Burn WAV\Chocolate Milk - Chocolate Milk [Expanded Edition].wav
Peak level 100.0 %
Extraction speed 8.7 X
Range quality 100.0 %
Test CRC 0B92A42C
Copy CRC 0B92A42C
Copy OK
No errors occurred
AccurateRip summary
Track 1 not present in database
Track 2 not present in database
Track 3 not present in database
Track 4 not present in database
Track 5 not present in database
Track 6 not present in database
Track 7 not present in database
Track 8 not present in database
Track 9 not present in database
Track 10 not present in database
Track 11 not present in database
Track 12 not present in database
None of the tracks are present in the AccurateRip database
End of status report
---- CUETools DB Plugin V2.1.6
[CTDB TOCID: bVrjgwPd2cqv3fOoRFRDnz.C004-] disk not present in database
Submit result: bVrjgwPd2cqv3fOoRFRDnz.C004- has been uploaded
==== Log checksum 1AB2542986191C773B4535F33CB87EEFE0A60B6230F267875B903CA2AA2DB58A ====
 
Содержание индексной карты (.CUE)
REM GENRE Funk
REM DATE 1976
REM DISCID B00B770C
REM COMMENT "ExactAudioCopy v1.3"
PERFORMER "Chocolate Milk"
TITLE "Chocolate Milk [Expanded Edition]"
REM COMPOSER "Chocolate Milk"
FILE "Chocolate Milk - Chocolate Milk [Expanded Edition].flac" WAVE
TRACK 01 AUDIO
TITLE "Never Ever Do Without You"
PERFORMER "Chocolate Milk"
REM COMPOSER "Chocolate Milk"
INDEX 01 00:00:00
TRACK 02 AUDIO
TITLE "How About Love"
PERFORMER "Chocolate Milk"
REM COMPOSER "Chocolate Milk"
INDEX 00 03:45:73
INDEX 01 03:47:30
TRACK 03 AUDIO
TITLE "Spread a Little Love"
PERFORMER "Chocolate Milk"
REM COMPOSER "Chocolate Milk"
INDEX 00 09:36:64
INDEX 01 09:38:21
TRACK 04 AUDIO
TITLE "You've Got Your Spell on Me"
PERFORMER "Chocolate Milk"
REM COMPOSER "Chocolate Milk"
INDEX 00 14:34:01
INDEX 01 14:35:33
TRACK 05 AUDIO
TITLE "Let Music Take Your Mind"
PERFORMER "Chocolate Milk"
REM COMPOSER "Chocolate Milk"
INDEX 00 17:41:54
INDEX 01 17:43:11
TRACK 06 AUDIO
TITLE "Crazy About You"
PERFORMER "Chocolate Milk"
REM COMPOSER "Chocolate Milk"
INDEX 00 22:04:45
INDEX 01 22:06:02
TRACK 07 AUDIO
TITLE "Party Happy"
PERFORMER "Chocolate Milk"
REM COMPOSER "Chocolate Milk"
INDEX 00 25:34:62
INDEX 01 25:36:19
TRACK 08 AUDIO
TITLE "Running Away"
PERFORMER "Chocolate Milk"
REM COMPOSER "Chocolate Milk"
INDEX 00 28:49:12
INDEX 01 28:50:44
TRACK 09 AUDIO
TITLE "Pluck It"
PERFORMER "Chocolate Milk"
REM COMPOSER "Chocolate Milk"
INDEX 00 32:33:14
INDEX 01 32:34:46
TRACK 10 AUDIO
TITLE "Grand Theft (7″)"
PERFORMER "Chocolate Milk"
REM COMPOSER "Chocolate Milk"
INDEX 00 37:52:45
INDEX 01 37:54:02
TRACK 11 AUDIO
TITLE "Girl Calling (7″)"
PERFORMER "Chocolate Milk"
REM COMPOSER "Allen Toussaint"
INDEX 00 41:27:41
INDEX 01 41:28:73
TRACK 12 AUDIO
TITLE "Say Wont'Cha (7″)"
PERFORMER "Chocolate Milk"
REM COMPOSER "Chocolate Milk"
INDEX 00 45:23:00
INDEX 01 45:24:32
Приватный:
Нет (DHT включён)
Размер:
359.84 Мб (377,324,276 байт) » файлов: 12
Участники:
0 раздают, 0 качают (0 участников всего)
Внешние участники:
3 раздают, 1 качают (4 участников всего) [ Обновить ]
No seeders - write personal message to user M0p94ok. Нет сидеров - пишите личное сообщение пользователю M0p94ok.
14:23
75
Нет комментариев. Ваш будет первым!