Поиск

(Jazz, Funk, Soul, Fusion, Jazz-Funk, Psychedelic, Soul-Jazz) [WEB] Cosmic Analog Ensemble - Les Sourdes Oreilles - 2017, FLAC (tracks), lossless

(Jazz, Funk, Soul, Fusion, Jazz-Funk, Psychedelic, Soul-Jazz) [WEB] Cosmic Analog Ensemble - Les Sourdes Oreilles - 2017, FLAC (tracks), lossless
Треклист:
Cosmic Analog Ensemble / Les Sourdes Oreilles
Жанр: Jazz, Funk, Soul, Fusion, Jazz-Funk, Psychedelic, Soul-Jazz
Носитель: WEB
Год издания: 2017
Издатель (лейбл): My Bags
Страна исполнителя (группы): France
Аудиокодек: FLAC (*.flac)
Тип рипа: tracks
Битрейт аудио: lossless
Продолжительность: 00:43:38
Источник (релизер): bandcamp
Наличие сканов в содержимом раздачи: Front
Треклист:
01. Pourparlers (1:24)
02. Les Sourdes Oreilles (3:15)
03. Camille 3000 (2:43)
04. Point De Bascule (2:21)
05. Petite Fleur Industrielle (2:51)
06. Al Mushtari (3:32)
07. Après Vous (2:31)
08. Demi Lune (2:12)
09. Sol Sur Sol (3:07)
10. Résilience (2:48)
11. A La Dérive (2:42)
12. En Faction feat. Medline (2:31)
13. Le Dernier Mot (3:58)
14. La Nuée De Son Ame (3:24)
15. S'Aventurer (2:21)
16. Esprit Plus Que Matière (1:58)
 
Лог проверки качества
-----------------------
DON'T MODIFY THIS FILE
-----------------------
PERFORMER: auCDtect Task Manager, ver. 1.5.1RC4 build 1.5.1.5
Copyright (c) 2008-2010 y-soft. All rights reserved
http://y-soft.org
ANALYZER: auCDtect: CD records authenticity detector, version 0.8.2
Copyright (c) 2004 Oleg Berngardt. All rights reserved.
Copyright (c) 2004 Alexander Djourik. All rights reserved.
FILE: 16. Esprit Plus Que Matière.flac
Size: 11232708 Hash: BF7B45E2E05DDE603C8EB6EACCB5080A Accuracy: -m0
Conclusion: CDDA 100%
Signature: A84D4EBFC7878DE6787F6A2CAD1F725744B98E15
FILE: 15. S'Aventurer.flac
Size: 12474424 Hash: DF7DC0497C5DB5837A201303A28D8E3C Accuracy: -m0
Conclusion: CDDA 100%
Signature: 34201F06BC09B1F385902B0486A0CF291A936EE4
FILE: 14. La Nuée De Son Ame.flac
Size: 18164564 Hash: E44A047C339A7174897652F573FCAA99 Accuracy: -m0
Conclusion: CDDA 58%
Signature: 204FCD29FBF7CFFC9A2D89D0F68EF2C41A84033E
FILE: 13. Le Dernier Mot.flac
Size: 21082785 Hash: AF631E096F75BF0AFFE38F40F095067B Accuracy: -m0
Conclusion: CDDA 99%
Signature: DA9C75E9AB319420D3A16E171927369B3D64E647
FILE: 12. En Faction feat. Medline.flac
Size: 13643262 Hash: F93E56809E3AB600D301AC4CD60712AD Accuracy: -m0
Conclusion: CDDA 85%
Signature: A5B66DCC80A6D7A3F2B399D2B99E217AB9F7E2A5
FILE: 11. A La Dérive.flac
Size: 13476798 Hash: 1A0412DF3EB2A1270F93177E7AFFDF49 Accuracy: -m0
Conclusion: CDDA 86%
Signature: 29CA7B5E2B2743D2DCA92F0E95CDA4E39C82E6B2
FILE: 10. Résilience.flac
Size: 14212117 Hash: 580B1CA59EF1AB896981FA52E4DC5326 Accuracy: -m0
Conclusion: CDDA 85%
Signature: C1563CCE179CA4A11E92D3168285ECAE4406FF17
FILE: 09. Sol Sur Sol.flac
Size: 16212501 Hash: 202E852409566D5BE686F672030352AE Accuracy: -m0
Conclusion: CDDA 58%
Signature: E0936802F4C52BC84635A1A61902023BDEFD7EC4
FILE: 08. Demi Lune.flac
Size: 10411724 Hash: 429F31891F0CCBDCBF44D897C9B4D950 Accuracy: -m0
Conclusion: CDDA 43%
Signature: D1E1AEAEA4FDD0E3E57EFA589138399E8450FC30
FILE: 07. Après Vous.flac
Size: 14053997 Hash: 1F3ACD25C658BE55883B23E73C33AACF Accuracy: -m0
Conclusion: CDDA 100%
Signature: 1643B51F5FDD1C4DD2B3565734394170A62FB8BC
FILE: 06. Al Mushtari.flac
Size: 17764869 Hash: 83B6A500D5C0E81CCE0C02D6978A41A6 Accuracy: -m0
Conclusion: CDDA 100%
Signature: C3E063FC53810B1CF05EA0F5047CF5B2A2CDC09A
FILE: 05. Petite Fleur Industrielle.flac
Size: 12436550 Hash: F73DD10189059AB24C84B3ACCEE5843F Accuracy: -m0
Conclusion: MPEG 100%
Signature: EB26D809E1AD129B48BA887AD58D862B410C6BC2
FILE: 04. Point De Bascule.flac
Size: 11735363 Hash: 8B25F58F03ABCBFF79602AB7F033BC01 Accuracy: -m0
Conclusion: CDDA 92%
Signature: 8B376C6274431AB214D69BCB1243EC5A02514BE9
FILE: 03. Camille 3000.flac
Size: 16066557 Hash: C9D3E884418266C91E9384D78AE4B490 Accuracy: -m0
Conclusion: CDDA 100%
Signature: 76029D55E82DCAB404BFC8D6A88B4CB0BCEBADBC
FILE: 02. Les Sourdes Oreilles.flac
Size: 17092715 Hash: CBFF4FAC56BB498265C26EF433CBA91F Accuracy: -m0
Conclusion: CDDA 100%
Signature: 9DFFF367FC5B6E0AC9D1D6FA2E7161419F200031
FILE: 01. Pourparlers.flac
Size: 7103162 Hash: D834E87B44571970B3AD4ABE44CF8B7E Accuracy: -m0
Conclusion: MPEG 99%
Signature: ABF2DC7D46D181B3BF8318F9206228F00F94DCF9
 
DR Log
foobar2000 1.1.10 / Dynamic Range Meter 1.1.1
log date: 2017-07-31 21:00:50
--------------------------------------------------------------------------------
Analyzed: Cosmic Analog Ensemble / Les Sourdes Oreilles
--------------------------------------------------------------------------------
DR Peak RMS Duration Track
--------------------------------------------------------------------------------
DR8 -2.31 dB -13.32 dB 1:24 ?-Pourparlers
DR8 -4.31 dB -14.79 dB 3:15 ?-Les Sourdes Oreilles
DR8 -4.15 dB -14.77 dB 2:43 ?-Camille 3000
DR10 -4.61 dB -16.67 dB 2:21 ?-Point De Bascule
DR7 -5.32 dB -13.31 dB 2:51 ?-Petite Fleur Industrielle
DR11 -1.64 dB -14.78 dB 3:32 ?-Al Mushtari
DR8 -5.11 dB -15.44 dB 2:31 ?-Après Vous
DR10 -4.23 dB -16.98 dB 2:12 ?-Demi Lune
DR12 -1.65 dB -16.94 dB 3:07 ?-Sol Sur Sol
DR12 -1.10 dB -16.02 dB 2:48 ?-Résilience
DR10 -2.25 dB -15.36 dB 2:42 ?-A La Dérive
DR12 -2.08 dB -15.72 dB 2:31 ?-En Faction feat. Medline
DR9 -4.53 dB -15.44 dB 3:58 ?-Le Dernier Mot
DR12 -2.13 dB -16.73 dB 3:24 ?-La Nuée De Son Ame
DR11 -4.21 dB -16.47 dB 2:21 ?-S'Aventurer
DR5 -0.24 dB -7.21 dB 1:58 ?-Esprit Plus Que Matière
--------------------------------------------------------------------------------
Number of tracks: 16
Official DR value: DR9
Samplerate: 44100 Hz
Channels: 2
Bits per sample: 16
Bitrate: 750 kbps
Codec: FLAC
================================================================================
 
Скриншот спектра частот
 
Об альбоме (сборнике)
Les Sourdes Oreilles (The Deaf Ears), is the next generation analog cinematic music from the 21 century. Following the sound of 70's cinematic jazz funk, this first 300 X 12" from Cosmic Analog Ensemble is the new My Bags emergency hammer glass breaker.
Designed like a 70's movie soundtrack Graal, with the perfect hijacking artwork of Jerk 45, the album is a future now crate digging target. Built like a narrative scenario, scene after scene, each composition deploys his uniqueness, from the explosives intense actions of "Camille 3000", moments of suspence with "Sol Sur Sol" to running chase on "En Faction" and flying panoramic views of "Point De Bascule"... the compositions are depicting a rich range of situations, moods and intrigue.
Brilliantly composed, produced and interprated by Charif Megarbane, playing himself all instruments, track after track, each song is a one man piece of art.
Chiseled drum breaks, evocative bass and stirring melodies are a part of a bigger plan, sprinkled with subtle sound effects.
"Les Sourdes Oreilles" is a long artisanal goldsmith work, cooking occidental classic jazz funk tradition into an afro oriental kitchen. It's what make this release so awesome, unique and necessary to our deaf ears.
This is a heavy rare groove material.
As you can imagine looking to the cover, this is all about legendary cinematic jazz funk, in the continuum of US, italian and french composers of the 70's like François de Roubaix, Piero Piccioni, David Axelrod, Piero Umiliani, Galt Mcdermot, Alain Goraguer, Janko Nilovic...
 
Состав
drums, percussions, bass, electric and acoustic guitar, 12 strings guitar, oud, mandolin, harpsichord, clavinet, vibes, Rhodes electric piano, Farfisa organ, flute, voice, tape manipulation and more... – Charif Megarbane
Flute on "En Faction" by Medline
Приватный:
Нет (DHT включён)
Размер:
225.28 Мб (236,228,199 байт) » файлов: 19
Участники:
0 раздают, 0 качают (0 участников всего)
Внешние участники:
2 раздают, 1 качают (3 участников всего) [ Обновить ]
No seeders - write a personal message to user M0p94ok. Нет сидеров - пишите личное сообщение пользователю M0p94ok.
14:17
71
Нет комментариев. Ваш будет первым!