Поиск

(Funk,Soul,R&B,Minneapolis Sound) [CD] The Original 7ven (Morris Day,The Time) - Condensate - 2011, FLAC (tracks+.cue), lossless

(Funk,Soul,R&B,Minneapolis Sound) [CD] The Original 7ven (Morris Day,The Time) - Condensate - 2011, FLAC (tracks+.cue), lossless
Треклист:
The Original 7ven / Condensate
Жанр: Funk,Soul,R&B,Minneapolis Sound
Носитель: CD
Страна-производитель диска (релиза): US
Год издания: 2011
Издатель (лейбл): Saguaro Road Records
Номер по каталогу: 26680-D
Страна исполнителя (группы): US
Аудиокодек: FLAC (*.flac)
Тип рипа: tracks+.cue
Битрейт аудио: lossless
Продолжительность: 00:67:00
Источник (релизер): файлообменник/не известен.
Наличие сканов в содержимом раздачи: нет
Треклист:
1 O7ven Intro
2 Strawberry Lake
3 O7ven Press Conference Intro
4 Condensate
5 #Trendin
6 If I Was Yo Man
7 Role Play
8 Sick
9 Lifestyle
10 Faithful
11 Cadillac
12 Aydkmn
13 One Step
14 Toast To The Party Girl
15 Hey Yo
16 GoHomeToYoMan
 
Лог создания рипа
Exact Audio Copy V1.0 beta 3 from 29. August 2011
EAC extraction logfile from 19. October 2011, 13:25
The Original 7Ven / Condensate
Used drive : PLEXTOR DVDR PX-716A Adapter: 0 ID: 0
Read mode : Secure
Utilize accurate stream : Yes
Defeat audio cache : Yes
Make use of C2 pointers : No
Read offset correction : 30
Overread into Lead-In and Lead-Out : No
Fill up missing offset samples with silence : Yes
Delete leading and trailing silent blocks : No
Null samples used in CRC calculations : Yes
Used interface : Native Win32 interface for Win NT & 2000
Gap handling : Appended to previous track
Used output format : User Defined Encoder
Selected bitrate : 1024 kBit/s
Quality : High
Add ID3 tag : No
Command line compressor : C:\Program Files (x86)\FLAC\flac.exe
Additional command line options : -8 -V -T "ARTIST=%artist%" -T "TITLE=%title%" -T "ALBUM=%albumtitle%" -T "DATE=%year%" -T "TRACKNUMBER=%tracknr%" -T "GENRE=%genre%" -T "PERFORMER=%albuminterpret%" -T "COMPOSER=%composer%" %haslyrics%--tag-from-file=LYRICS="%lyricsfile%"%haslyrics% -T "ALBUMARTIST=%albumartist%" -T "ALBUM ARTIST=%albumartist%" -T "DISCNUMBER=%cdnumber%" -T "TOTALDISCS=%totalcds%" -T "TOTALTRACKS=%numtracks%" -T "COMMENT=EAC V1.0 beta 3, Secure Mode, Test & Copy, AccurateRip, FLAC -8" %source% -o %dest%
TOC of the extracted CD
Track | Start | Length | Start sector | End sector
---------------------------------------------------------
1 | 0:00.00 | 0:55.63 | 0 | 4187
2 | 0:55.63 | 5:09.48 | 4188 | 27410
3 | 6:05.36 | 1:01.55 | 27411 | 32040
4 | 7:07.16 | 3:04.03 | 32041 | 45843
5 | 10:11.19 | 4:08.69 | 45844 | 64512
6 | 14:20.13 | 5:35.32 | 64513 | 89669
7 | 19:55.45 | 4:44.70 | 89670 | 111039
8 | 24:40.40 | 4:19.14 | 111040 | 130478
9 | 28:59.54 | 5:10.61 | 130479 | 153789
10 | 34:10.40 | 4:40.08 | 153790 | 174797
11 | 38:50.48 | 3:51.39 | 174798 | 192161
12 | 42:42.12 | 5:13.60 | 192162 | 215696
13 | 47:55.72 | 3:35.62 | 215697 | 231883
14 | 51:31.59 | 5:34.19 | 231884 | 256952
15 | 57:06.03 | 4:32.53 | 256953 | 277405
16 | 61:38.56 | 5:29.55 | 277406 | 302135
Track 1
Filename C:\tmp\01. - 07Ven Intro.wav
Pre-gap length 0:00:02.00
Peak level 98.6 %
Extraction speed 7.6 X
Track quality 100.0 %
Test CRC A9C5025B
Copy CRC A9C5025B
Track not present in AccurateRip database
Copy OK
Track 2
Filename C:\tmp\02. - Strawberry Lake.wav
Peak level 100.0 %
Extraction speed 9.0 X
Track quality 100.0 %
Test CRC 8B554FEA
Copy CRC 8B554FEA
Track not present in AccurateRip database
Copy OK
Track 3
Filename C:\tmp\03. - 07ven Press Conference.wav
Peak level 100.0 %
Extraction speed 6.4 X
Track quality 99.8 %
Test CRC FF856A33
Copy CRC FF856A33
Track not present in AccurateRip database
Copy OK
Track 4
Filename C:\tmp\04. - Condensate.wav
Peak level 100.0 %
Extraction speed 9.9 X
Track quality 100.0 %
Test CRC BE2E379B
Copy CRC BE2E379B
Track not present in AccurateRip database
Copy OK
Track 5
Filename C:\tmp\05. - #Trendin.wav
Peak level 100.0 %
Extraction speed 10.7 X
Track quality 100.0 %
Test CRC B33BEEFB
Copy CRC B33BEEFB
Track not present in AccurateRip database
Copy OK
Track 6
Filename C:\tmp\06. - If I Was Yo Man.wav
Peak level 100.0 %
Extraction speed 11.7 X
Track quality 100.0 %
Test CRC 40810697
Copy CRC 40810697
Track not present in AccurateRip database
Copy OK
Track 7
Filename C:\tmp\07. - Role Play.wav
Peak level 100.0 %
Extraction speed 12.4 X
Track quality 100.0 %
Test CRC 1E2185EF
Copy CRC 1E2185EF
Track not present in AccurateRip database
Copy OK
Track 8
Filename C:\tmp\08. - Sick.wav
Peak level 100.0 %
Extraction speed 13.0 X
Track quality 100.0 %
Test CRC FAE8AEF9
Copy CRC FAE8AEF9
Track not present in AccurateRip database
Copy OK
Track 9
Filename C:\tmp\09. - Lifestyle.wav
Peak level 100.0 %
Extraction speed 13.9 X
Track quality 100.0 %
Test CRC 8DA7392E
Copy CRC 8DA7392E
Track not present in AccurateRip database
Copy OK
Track 10
Filename C:\tmp\10. - Faithfull.wav
Peak level 100.0 %
Extraction speed 14.4 X
Track quality 100.0 %
Test CRC AFC97362
Copy CRC AFC97362
Track not present in AccurateRip database
Copy OK
Track 11
Filename C:\tmp\11. - Cadillac.wav
Peak level 100.0 %
Extraction speed 14.9 X
Track quality 100.0 %
Test CRC D2E71AA5
Copy CRC D2E71AA5
Track not present in AccurateRip database
Copy OK
Track 12
Filename C:\tmp\12. - Aydkmn.wav
Peak level 100.0 %
Extraction speed 15.6 X
Track quality 100.0 %
Test CRC EA9C4293
Copy CRC EA9C4293
Track not present in AccurateRip database
Copy OK
Track 13
Filename C:\tmp\13. - One Step.wav
Peak level 94.8 %
Extraction speed 15.6 X
Track quality 100.0 %
Test CRC 2DB22719
Copy CRC 2DB22719
Track not present in AccurateRip database
Copy OK
Track 14
Filename C:\tmp\14. - Toast To The Party Girl.wav
Peak level 100.0 %
Extraction speed 16.7 X
Track quality 100.0 %
Test CRC 4ECD0932
Copy CRC 4ECD0932
Track not present in AccurateRip database
Copy OK
Track 15
Filename C:\tmp\15. - Hey Yo.wav
Peak level 100.0 %
Extraction speed 17.0 X
Track quality 100.0 %
Test CRC 9A62CE0D
Copy CRC 9A62CE0D
Track not present in AccurateRip database
Copy OK
Track 16
Filename C:\tmp\16. - Go Home To Yo Man.wav
Peak level 100.0 %
Extraction speed 17.6 X
Track quality 100.0 %
Test CRC 34494703
Copy CRC 34494703
Track not present in AccurateRip database
Copy OK
None of the tracks are present in the AccurateRip database
No errors occurred
End of status report
---- CUETools DB Plugin V2.1.3
[CTDB TOCID: 9_rZjTVoxOTVWwz4Lxd4JeV0xvk-] disk not present in database, Submit result: 9_rZjTVoxOTVWwz4Lxd4JeV0xvk- has been uploaded
==== Log checksum B7D0ABE73A1ADDC925174692F99F9224F01BB16EC72750AE4F2296074E12800C ====
------------------------------------------------------------
Exact Audio Copy V1.0 beta 3 from 29. August 2011
EAC extraction logfile from 19. October 2011, 13:25
The Original 7Ven / Condensate
Used drive : PLEXTOR DVDR PX-716A Adapter: 0 ID: 0
Read mode : Secure
Utilize accurate stream : Yes
Defeat audio cache : Yes
Make use of C2 pointers : No
Read offset correction : 30
Overread into Lead-In and Lead-Out : No
Fill up missing offset samples with silence : Yes
Delete leading and trailing silent blocks : No
Null samples used in CRC calculations : Yes
Used interface : Native Win32 interface for Win NT & 2000
Gap handling : Appended to previous track
Used output format : User Defined Encoder
Selected bitrate : 1024 kBit/s
Quality : High
Add ID3 tag : No
Command line compressor : C:\Program Files (x86)\FLAC\flac.exe
Additional command line options : -8 -V -T "ARTIST=%artist%" -T "TITLE=%title%" -T "ALBUM=%albumtitle%" -T "DATE=%year%" -T "TRACKNUMBER=%tracknr%" -T "GENRE=%genre%" -T "PERFORMER=%albuminterpret%" -T "COMPOSER=%composer%" %haslyrics%--tag-from-file=LYRICS="%lyricsfile%"%haslyrics% -T "ALBUMARTIST=%albumartist%" -T "ALBUM ARTIST=%albumartist%" -T "DISCNUMBER=%cdnumber%" -T "TOTALDISCS=%totalcds%" -T "TOTALTRACKS=%numtracks%" -T "COMMENT=EAC V1.0 beta 3, Secure Mode, Test & Copy, AccurateRip, FLAC -8" %source% -o %dest%
TOC of the extracted CD
Track | Start | Length | Start sector | End sector
---------------------------------------------------------
1 | 0:00.00 | 0:55.63 | 0 | 4187
2 | 0:55.63 | 5:09.48 | 4188 | 27410
3 | 6:05.36 | 1:01.55 | 27411 | 32040
4 | 7:07.16 | 3:04.03 | 32041 | 45843
5 | 10:11.19 | 4:08.69 | 45844 | 64512
6 | 14:20.13 | 5:35.32 | 64513 | 89669
7 | 19:55.45 | 4:44.70 | 89670 | 111039
8 | 24:40.40 | 4:19.14 | 111040 | 130478
9 | 28:59.54 | 5:10.61 | 130479 | 153789
10 | 34:10.40 | 4:40.08 | 153790 | 174797
11 | 38:50.48 | 3:51.39 | 174798 | 192161
12 | 42:42.12 | 5:13.60 | 192162 | 215696
13 | 47:55.72 | 3:35.62 | 215697 | 231883
14 | 51:31.59 | 5:34.19 | 231884 | 256952
15 | 57:06.03 | 4:32.53 | 256953 | 277405
16 | 61:38.56 | 5:29.55 | 277406 | 302135
Track 1
Filename C:\tmp\01. - 07Ven Intro.wav
Pre-gap length 0:00:02.00
Peak level 98.6 %
Extraction speed 7.6 X
Track quality 100.0 %
Test CRC A9C5025B
Copy CRC A9C5025B
Track not present in AccurateRip database
Copy OK
Track 2
Filename C:\tmp\02. - Strawberry Lake.wav
Peak level 100.0 %
Extraction speed 9.0 X
Track quality 100.0 %
Test CRC 8B554FEA
Copy CRC 8B554FEA
Track not present in AccurateRip database
Copy OK
Track 3
Filename C:\tmp\03. - 07ven Press Conference.wav
Peak level 100.0 %
Extraction speed 6.4 X
Track quality 99.8 %
Test CRC FF856A33
Copy CRC FF856A33
Track not present in AccurateRip database
Copy OK
Track 4
Filename C:\tmp\04. - Condensate.wav
Peak level 100.0 %
Extraction speed 9.9 X
Track quality 100.0 %
Test CRC BE2E379B
Copy CRC BE2E379B
Track not present in AccurateRip database
Copy OK
Track 5
Filename C:\tmp\05. - #Trendin.wav
Peak level 100.0 %
Extraction speed 10.7 X
Track quality 100.0 %
Test CRC B33BEEFB
Copy CRC B33BEEFB
Track not present in AccurateRip database
Copy OK
Track 6
Filename C:\tmp\06. - If I Was Yo Man.wav
Peak level 100.0 %
Extraction speed 11.7 X
Track quality 100.0 %
Test CRC 40810697
Copy CRC 40810697
Track not present in AccurateRip database
Copy OK
Track 7
Filename C:\tmp\07. - Role Play.wav
Peak level 100.0 %
Extraction speed 12.4 X
Track quality 100.0 %
Test CRC 1E2185EF
Copy CRC 1E2185EF
Track not present in AccurateRip database
Copy OK
Track 8
Filename C:\tmp\08. - Sick.wav
Peak level 100.0 %
Extraction speed 13.0 X
Track quality 100.0 %
Test CRC FAE8AEF9
Copy CRC FAE8AEF9
Track not present in AccurateRip database
Copy OK
Track 9
Filename C:\tmp\09. - Lifestyle.wav
Peak level 100.0 %
Extraction speed 13.9 X
Track quality 100.0 %
Test CRC 8DA7392E
Copy CRC 8DA7392E
Track not present in AccurateRip database
Copy OK
Track 10
Filename C:\tmp\10. - Faithfull.wav
Peak level 100.0 %
Extraction speed 14.4 X
Track quality 100.0 %
Test CRC AFC97362
Copy CRC AFC97362
Track not present in AccurateRip database
Copy OK
Track 11
Filename C:\tmp\11. - Cadillac.wav
Peak level 100.0 %
Extraction speed 14.9 X
Track quality 100.0 %
Test CRC D2E71AA5
Copy CRC D2E71AA5
Track not present in AccurateRip database
Copy OK
Track 12
Filename C:\tmp\12. - Aydkmn.wav
Peak level 100.0 %
Extraction speed 15.6 X
Track quality 100.0 %
Test CRC EA9C4293
Copy CRC EA9C4293
Track not present in AccurateRip database
Copy OK
Track 13
Filename C:\tmp\13. - One Step.wav
Peak level 94.8 %
Extraction speed 15.6 X
Track quality 100.0 %
Test CRC 2DB22719
Copy CRC 2DB22719
Track not present in AccurateRip database
Copy OK
Track 14
Filename C:\tmp\14. - Toast To The Party Girl.wav
Peak level 100.0 %
Extraction speed 16.7 X
Track quality 100.0 %
Test CRC 4ECD0932
Copy CRC 4ECD0932
Track not present in AccurateRip database
Copy OK
Track 15
Filename C:\tmp\15. - Hey Yo.wav
Peak level 100.0 %
Extraction speed 17.0 X
Track quality 100.0 %
Test CRC 9A62CE0D
Copy CRC 9A62CE0D
Track not present in AccurateRip database
Copy OK
Track 16
Filename C:\tmp\16. - Go Home To Yo Man.wav
Peak level 100.0 %
Extraction speed 17.6 X
Track quality 100.0 %
Test CRC 34494703
Copy CRC 34494703
Track not present in AccurateRip database
Copy OK
None of the tracks are present in the AccurateRip database
No errors occurred
End of status report
---- CUETools DB Plugin V2.1.3
[CTDB TOCID: 9_rZjTVoxOTVWwz4Lxd4JeV0xvk-] disk not present in database, Submit result: 9_rZjTVoxOTVWwz4Lxd4JeV0xvk- has been uploaded
==== Log checksum B7D0ABE73A1ADDC925174692F99F9224F01BB16EC72750AE4F2296074E12800C ====
 
Текст CUE
REM GENRE Soul
REM DATE 2011
REM DISCID DB0FBC10
REM COMMENT "ExactAudioCopy v1.0b3"
PERFORMER "The Original 7Ven"
TITLE "Condensate"
FILE "01. - 07Ven Intro.wav" WAVE
TRACK 01 AUDIO
TITLE "07Ven Intro"
PERFORMER " "
ISRC QMUY91107011
INDEX 01 00:00:00
FILE "02. - Strawberry Lake.wav" WAVE
TRACK 02 AUDIO
TITLE "Strawberry Lake"
PERFORMER " "
ISRC QMUY91107021
INDEX 01 00:00:00
FILE "03. - 07ven Press Conference.wav" WAVE
TRACK 03 AUDIO
TITLE "07ven Press Conference"
PERFORMER " "
ISRC QMUY91107031
INDEX 01 00:00:00
FILE "04. - Condensate.wav" WAVE
TRACK 04 AUDIO
TITLE "Condensate"
PERFORMER " "
ISRC QMUY91107041
INDEX 01 00:00:00
FILE "05. - #Trendin.wav" WAVE
TRACK 05 AUDIO
TITLE "#Trendin"
PERFORMER " "
ISRC QMUY91107051
INDEX 01 00:00:00
FILE "06. - If I Was Yo Man.wav" WAVE
TRACK 06 AUDIO
TITLE "If I Was Yo Man"
PERFORMER " "
ISRC QMUY91107061
INDEX 01 00:00:00
FILE "07. - Role Play.wav" WAVE
TRACK 07 AUDIO
TITLE "Role Play"
PERFORMER " "
ISRC QMUY91107071
INDEX 01 00:00:00
FILE "08. - Sick.wav" WAVE
TRACK 08 AUDIO
TITLE "Sick"
PERFORMER " "
ISRC QMUY91107081
INDEX 01 00:00:00
FILE "09. - Lifestyle.wav" WAVE
TRACK 09 AUDIO
TITLE "Lifestyle"
PERFORMER " "
ISRC QMUY91107091
INDEX 01 00:00:00
FILE "10. - Faithfull.wav" WAVE
TRACK 10 AUDIO
TITLE "Faithfull"
PERFORMER " "
ISRC QMUY91107101
INDEX 01 00:00:00
FILE "11. - Cadillac.wav" WAVE
TRACK 11 AUDIO
TITLE "Cadillac"
PERFORMER " "
ISRC QMUY91107111
INDEX 01 00:00:00
FILE "12. - Aydkmn.wav" WAVE
TRACK 12 AUDIO
TITLE "Aydkmn"
PERFORMER " "
ISRC QMUY91107121
INDEX 01 00:00:00
FILE "13. - One Step.wav" WAVE
TRACK 13 AUDIO
TITLE "One Step"
PERFORMER " "
ISRC QMUY91107131
INDEX 01 00:00:00
FILE "14. - Toast To The Party Girl.wav" WAVE
TRACK 14 AUDIO
TITLE "Toast To The Party Girl"
PERFORMER " "
ISRC QMUY91107141
INDEX 01 00:00:00
FILE "15. - Hey Yo.wav" WAVE
TRACK 15 AUDIO
TITLE "Hey Yo"
PERFORMER " "
ISRC QMUY91107151
INDEX 01 00:00:00
FILE "16. - Go Home To Yo Man.wav" WAVE
TRACK 16 AUDIO
TITLE "Go Home To Yo Man"
PERFORMER " "
ISRC QMUY91107161
INDEX 01 00:00:00
 
Лог проверки качества
AUDIOCHECKER v2.0 beta (build 457) - by Dester - opdester@freemail.hu
~~~~~~~~~~~~~~~~~~~~~~~~~~~~~~~~~~-----------------------------------------------------------
Started at: Saturday, 27. 06. 2015. - 15:30.41
16 files found
01 -===- C:\Users\maritu\Downloads\The Original 7Ven - Condensate [2011](FLAC)\01. - 07Ven Intro.flac
Extracted successfully
Conclusion: this track is CDDA with probability 100%
Tempfile successfully deleted.
02 -===- C:\Users\maritu\Downloads\The Original 7Ven - Condensate [2011](FLAC)\02. - Strawberry Lake.flac
Extracted successfully
Conclusion: this track is CDDA with probability 100%
Tempfile successfully deleted.
03 -===- C:\Users\maritu\Downloads\The Original 7Ven - Condensate [2011](FLAC)\03. - 07ven Press Conference.flac
Extracted successfully
Conclusion: this track is CDDA with probability 99%
Tempfile successfully deleted.
04 -===- C:\Users\maritu\Downloads\The Original 7Ven - Condensate [2011](FLAC)\04. - Condensate.flac
Extracted successfully
Conclusion: this track is CDDA with probability 100%
Tempfile successfully deleted.
05 -===- C:\Users\maritu\Downloads\The Original 7Ven - Condensate [2011](FLAC)\05. - #Trendin.flac
Extracted successfully
Conclusion: this track is CDDA with probability 100%
Tempfile successfully deleted.
06 -===- C:\Users\maritu\Downloads\The Original 7Ven - Condensate [2011](FLAC)\06. - If I Was Yo Man.flac
Extracted successfully
Conclusion: this track is CDDA with probability 100%
Tempfile successfully deleted.
07 -===- C:\Users\maritu\Downloads\The Original 7Ven - Condensate [2011](FLAC)\07. - Role Play.flac
Extracted successfully
Conclusion: this track is CDDA with probability 100%
Tempfile successfully deleted.
08 -===- C:\Users\maritu\Downloads\The Original 7Ven - Condensate [2011](FLAC)\08. - Sick.flac
Extracted successfully
Conclusion: this track is CDDA with probability 100%
Tempfile successfully deleted.
09 -===- C:\Users\maritu\Downloads\The Original 7Ven - Condensate [2011](FLAC)\09. - Lifestyle.flac
Extracted successfully
Conclusion: this track is CDDA with probability 100%
Tempfile successfully deleted.
10 -===- C:\Users\maritu\Downloads\The Original 7Ven - Condensate [2011](FLAC)\10. - Faithfull.flac
Extracted successfully
Conclusion: this track is CDDA with probability 100%
Tempfile successfully deleted.
11 -===- C:\Users\maritu\Downloads\The Original 7Ven - Condensate [2011](FLAC)\11. - Cadillac.flac
Extracted successfully
Conclusion: this track is CDDA with probability 100%
Tempfile successfully deleted.
12 -===- C:\Users\maritu\Downloads\The Original 7Ven - Condensate [2011](FLAC)\12. - Aydkmn.flac
Extracted successfully
Conclusion: this track is CDDA with probability 100%
Tempfile successfully deleted.
13 -===- C:\Users\maritu\Downloads\The Original 7Ven - Condensate [2011](FLAC)\13. - One Step.flac
Extracted successfully
Conclusion: this track is CDDA with probability 99%
Tempfile successfully deleted.
14 -===- C:\Users\maritu\Downloads\The Original 7Ven - Condensate [2011](FLAC)\14. - Toast To The Party Girl.flac
Extracted successfully
Conclusion: this track is CDDA with probability 100%
Tempfile successfully deleted.
15 -===- C:\Users\maritu\Downloads\The Original 7Ven - Condensate [2011](FLAC)\15. - Hey Yo.flac
Extracted successfully
Conclusion: this track is CDDA with probability 100%
Tempfile successfully deleted.
16 -===- C:\Users\maritu\Downloads\The Original 7Ven - Condensate [2011](FLAC)\16. - Go Home To Yo Man.flac
Extracted successfully
Conclusion: this track is CDDA with probability 100%
Tempfile successfully deleted.
Finished at: Saturday, 27. 06. 2015. - 15:44.19 (operation time: 0:13.38)
 
Об исполнителе (группе)
The Original 7ven (previously known as The Time) is an American funk and dance-pop ensemble formed in Minneapolis in 1981. They are close Prince associates and arguably the most successful artists who have worked with him.The band was assembled under a clause in Prince's contract with [Warner Bros.] that allowed him to recruit and produce other artists for the label. Inspired by the 1980 film The Idolmaker, Prince decided to put together a pop-funk group that would serve as an outlet for material in the vein of his own early albums, while he explored other genres and styles in his own career.
By 1981, he had built The Time out of an existing Minneapolis funk/R&B unit, Flyte Time (from the Donald Byrd song), which featured Cynthia Johnson on lead vocals and sax, Anton (Tony) Johnson on guitar, David Eiland on saxophone, Jellybean Johnson on drums, Jimmy Jam and Monte Moir on keyboards, and Terry Lewis on bass. To the latter four were added Jesse Johnson on guitar and a lead singer and childhood friend named Morris Day, and Jerome Benton who was a promoter drawn from another local band called "Enterprise", who became Day's comic foil. Prince had used an Enterprise song, "Partyup", on his Dirty Mind album, and his selection of Day was essentially a reward; he had originally tapped Alexander O'Neal – yet another player in the Minneapolis Uptown funk scene – for the vocalist slot, but O'Neal wanted too much money, himself being quoted as saying, "I basically didn't see no point in being a superstar with no money."The band went on to release four albums (mostly performed by Prince + singer Morris Day alone) during the course of their main career, each a solid slice of jammy, rock-infused 1980s funk, generally light and humorous in tone, strongly influenced by Parliament, James Brown, Sly – and, of course, Prince. Although they scored numerous hits (including "The Bird", "Jungle Love", "777-9311", "Get It Up", "Gigolos Get Lonely Too", "The Walk" and "Cool", mostly on the R&B charts) during the early 1980s, they never approached superstardom. But as good as they were, they weren't allowed to play a note on their debut album. Prince recorded all the music himself, crediting the production to Jamie Starr and Morris Day, who at least was allowed to sing on the record, but was required to follow Prince's guide vocals note-for-note.
A growing rivalry began to develop between the two groups as The Time toured with Prince and his band during his 1982 Controversy Tour. Frustrated with their lack of input on the albums bearing their name and at being underpaid, The Time would take to the stage with the purpose of showing up Prince, in much the same way that Prince and his band had undermined Rick James when they had toured as James' opening act (unlike what happened during Rick James' Fire it Up tour, this time people didn't leave before the headliner, Prince, finished his set). The tension came to a head on the final night of the tour in Cincinnati during the Time's set when Prince and some of his band threw eggs at their supporting act from offstage. Things further escalated after The Time's performance when guitarist Jesse Johnson was handcuffed to a wall-mounted coat rack and further humiliated. Prince demanded no interruptions during his performance, but as soon as he left the stage, a food fight erupted. When the battle continued at the hotel, Prince made Morris Day pay for all damages, claiming that he had started the whole thing.
During the 1982–83 1999/Triple Threat tour, The Time served as Vanity 6's backing band from behind a curtain, before playing their own hour-long set. They liked the arrangement because the band saw it as free money. As Terry Lewis put it; "I'll play behind Vanity 6 for thirty minutes for $250. No problem. I was going to have to do the sound check, anyway." Jimmy Jam and Terry Lewis, who had begun writing songs and production work of their own (working with SOLAR to produce Klymaxx and with Tabu Records to produce the S.O.S. Band), were stranded in Atlanta by a blizzard and failed to make it to a Time concert in San Antonio, for which Jerome had to mime playing bass guitar on stage while Prince played Lewis' part off stage, and Lisa Coleman stood in for Jimmy Jam. Subsequently, the duo were fined and then fired, although Prince would state in a 1990 Rolling Stone's interview that "I didn't fire Jimmy Jam and Terry Lewis. Morris asked me what I would do in his situation. Remember, it was his band." Whether their firing was due to the incident or to their increasing independence has never been clear. Monte Moir took the opportunity to leave as well, and would also work with Jam and Lewis. The three were replaced with Mark Cardenas and Paul Peterson on keyboards and Rocky Harris on bass. This new line up, except with Jerry Hubbard replacing Rocky Harris, were featured in Prince's Purple Rain film. The Time rode the wave of popularity created by the movie and hit singles "Jungle Love" and "The Bird" and were household names in 1984.It was Day who left next after arguments with Prince, choosing to pursue a solo career in 1985 after a successful acting turn in Purple Rain. Soon thereafter, with Jesse Johnson also opting to go solo (taking other Time members Cardenas and Hubbard with him), the band disintegrated; the remaining members (Benton, Jellybean Johnson and Peterson) were reformed into a new short-lived project called The Family. Meanwhile, Jimmy Jam and Terry Lewis went on to become one of the most successful songwriting and production teams of the 1980s and 1990s.In 1990, the original seven members of the band reunited for the Graffiti Bridge movie and soundtrack, as well as a new album, Pandemonium. The project was originally called Corporate World and was set to only feature Morris and Jerome, but Warner Bros. demanded that the original line-up be brought in if Prince wanted the company's backing for the movie. This spawned their highest selling single, "Jerk Out" and the album featured more input from the band than any other Time album. "Nobody really needed to put The Time back together," said Lewis, "but everybody wanted to. That makes it a great experience all round. We take the musicianship and the craft of what we do very seriously but, when the seven of us get together, it's naturally a party, fun kinda situation. We carry that from the record on to the stage."
The reunion was short-lived, however – infighting within the band caused them to disband once again. Morris and Jerome have since remained a team, with both trying out some small acting roles over the next few years.
Several members of The Time reunited in 1995, added a few new recruits, Torri Ruffin on guitar, Chance Howard on Keyboards, Robert GI' Grissett Jr on third Keyboards and Freeze on Bass Guitar. This version of the band can be seen in the Kevin Smith film Jay and Silent Bob Strike Back and tours frequently to this day. The band is usually billed as "Morris Day and The Time".
A fifth Time album is rumoured to have been completed in the late 1990s, recorded with the new lineup but production and coordination with Prince has prevented its release. The title Old Dogs, New Tricks was the working title. A 2004 album attributed to Morris Day called It's About Time contains a few new tracks written and performed by Day and a number of live performances by The Time featuring the new members along with Jellybean, Jerome, Monte & Morris.The Time reunited at The 50th Grammy Awards on February 10, 2008, performing a medley that included Rihanna and featured "Jungle Love".
In June and July 2008, all of the original members of The Time (Morris Day, Jimmy Jam, Terry Lewis, Jesse Johnson, Jerome Benton, Jellybean Johnson, and Monte Moir) reunited once again for a series of shows at the Flamingo Hotel and Casino in Las Vegas.
A recent interview as of January 2009 mentions that guitarist Jesse Johnson states he is working with The Time on their upcoming album. The Time appeared at The Fox Theater, in Detroit, Michigan on June 11, 2010, with the original lineup to a packed house. Two days later during what Jimmy Jam dubbed "The Stingy Tour" on June 13, 2010 the "magnificent 7" played a hometown reunion concert in Minneapolis, MN, and, during that concert, announced on stage that a new album was "90% complete," which confirmed information provided in a Billboard profile published a week earlier.
In September 2011, the band announced a name change to The Original 7ven and a new album Condensate which was released October 18, 2011 with the single "#Trendin" released September 20.
As for why the band decided to call themselves by a new name, Jimmy Jam said that “the decision was made at that point that we could either continue to, shall we say, negotiate or argue or plead or whatever. We decided to go the route of 'let’s not hold things up because of the name. Let’s embrace the opportunity to move forward in a new era, with a new outlook, with a new album' and that’s what we did. We think the name reflects exactly who we are. We are the Original 7even and that basically, for me, covers it.”
On October 27, 2011, The Original 7ven appeared on The Tonight Show with Jay Leno.
On November 17, 2011, The Original 7ven opened the Soul Train Music Awards in Atlanta, GA. The show was broadcast on November 27.
 
Состав
Current Members Morris Day – Lead Vocals, Backing Vocals
Monte Moir – Keyboard, Backing Vocals
Jimmy Jam – Keyboard, Backing Vocals
Terry Lewis – Bass, Backing Vocals
Jerome Benton – Backing Vocals, Percussion
Jellybean Johnson – Drums, Guitar, Backing Vocals
Ricky "Freeze" Smith – Bass, Backing Vocals
Torrell "Tori" Ruffin – Guitar, Backing Vocals
Past Members
Jesse Johnson – Guitar, Backing Vocals
Mark Cardenas – Keyboards, Backing Vocals
St. Paul Peterson – Keyboards, Backing Vocals
Jerry Hubbard – Bass, Backing Vocals
Stanley "Chance" Howard – Keyboards, Backing Vocals
Rob 'gi' Grissett Jr - Keyboards, Backing Vocals
Morris Hayes - Keyboards, Backing Vocals
Brice Myles - Keyboards, Backing Vocals
Jeff McNealy - Keyboards, Backing Vocals
Alexander O'Neal - Lead vocals
Приватный:
Нет (DHT включён)
Размер:
497.79 Мб (521,970,787 байт) » файлов: 21
Участники:
0 раздают, 0 качают (0 участников всего)
Внешние участники:
2 раздают, 1 качают (3 участников всего) [ Обновить ]
Есть вопросы - пишите личное сообщение пользователю M0p94ok.
06:47
63
Нет комментариев. Ваш будет первым!