Поиск

(Soul,Funk,R&B,Pop Rock,House) [CD] Pauline Henry (The Chimes) - Pauline - 1993, FLAC (image+.cue), lossless

(Soul,Funk,R&B,Pop Rock,House) [CD] Pauline Henry (The Chimes) - Pauline - 1993, FLAC (image+.cue), lossless
Треклист:
Pauline Henry / Pauline
Жанр: Soul,Funk,R&B,Pop Rock,House
Носитель: CD
Страна-производитель диска (релиза): UK
Год издания: 1993
Издатель (лейбл): Sony Soho Square
Номер по каталогу: 474744 2
Страна исполнителя (группы): UK/Jamaica
Аудиокодек: FLAC (*.flac)
Тип рипа: image+.cue
Битрейт аудио: lossless
Продолжительность: 00:48:05
Источник (релизер): собственный рип
Наличие сканов в содержимом раздачи: нет
Треклист:
1 Revolution
2 Baby I Know
3 Too Many People
4 Feel Like Making Love
5 Now I've Been To Paradise
6 Can't Take Your Love
7 I've Got A Feeling
8 Watch The Miracle Start
9 Touch Of Your Hand
10 Now That I've Found You
11 Revolution (Louie Louie Remix)
 
Лог создания рипа
Exact Audio Copy V1.0 beta 6 from 9. April 2015
EAC extraction logfile from 26. June 2015, 15:09
Pauline Henry / Pauline
Used drive : HL-DT-STDVDRAM GT20N Adapter: 1 ID: 0
Read mode : Secure
Utilize accurate stream : Yes
Defeat audio cache : Yes
Make use of C2 pointers : No
Read offset correction : 667
Overread into Lead-In and Lead-Out : No
Fill up missing offset samples with silence : Yes
Delete leading and trailing silent blocks : No
Null samples used in CRC calculations : Yes
Used interface : Native Win32 interface for Win NT & 2000
Used output format : User Defined Encoder
Selected bitrate : 768 kBit/s
Quality : High
Add ID3 tag : No
Command line compressor : C:\Program Files (x86)\Exact Audio Copy\Flac\flac.exe
Additional command line options : -V -8 -T "Date=%year%" -T "Genre=%genre%" %source%
TOC of the extracted CD
Track | Start | Length | Start sector | End sector
---------------------------------------------------------
1 | 0:00.00 | 4:44.25 | 0 | 21324
2 | 4:44.25 | 3:48.55 | 21325 | 38479
3 | 8:33.05 | 3:59.35 | 38480 | 56439
4 | 12:32.40 | 4:48.02 | 56440 | 78041
5 | 17:20.42 | 4:59.73 | 78042 | 100539
6 | 22:20.40 | 3:46.72 | 100540 | 117561
7 | 26:07.37 | 3:26.35 | 117562 | 133046
8 | 29:33.72 | 3:52.08 | 133047 | 150454
9 | 33:26.05 | 5:18.15 | 150455 | 174319
10 | 38:44.20 | 4:31.15 | 174320 | 194659
11 | 43:15.35 | 4:49.72 | 194660 | 216406
Range status and errors
Selected range
Filename C:\Users\maritu\Music\RIPS\Pauline Henry - Pauline.wav
Peak level 100.0 %
Extraction speed 1.9 X
Range quality 99.9 %
Test CRC EE198368
Copy CRC EE198368
Copy OK
No errors occurred
AccurateRip summary
Track 1 accurately ripped (confidence 5) [D75A2D5B] (AR v1)
Track 2 accurately ripped (confidence 5) [6083CA97] (AR v1)
Track 3 accurately ripped (confidence 5) [44F7C47B] (AR v1)
Track 4 accurately ripped (confidence 5) [7821528F] (AR v1)
Track 5 accurately ripped (confidence 5) [197E8BBE] (AR v1)
Track 6 accurately ripped (confidence 5) [58DBAAB8] (AR v1)
Track 7 accurately ripped (confidence 5) [19D616B3] (AR v1)
Track 8 accurately ripped (confidence 5) [F16A5220] (AR v1)
Track 9 accurately ripped (confidence 5) [6D5ADD57] (AR v1)
Track 10 accurately ripped (confidence 5) [13E1E82B] (AR v1)
Track 11 accurately ripped (confidence 5) [9285AAFE] (AR v1)
All tracks accurately ripped
End of status report
==== Log checksum 5869199DD1ECDA6F03617D3FDE408AE32BA245F7A4BAC90F7BF233EF1626AD02 ====
 
Об исполнителе (группе)
Pauline Henry began her career as a recording artist signed to Sony BMG, as a member of the band ‘The Chimes‘.
Fame followed quickly. The Chimes are best known for hits like ‘I Still Haven’t Found What I’m Looking For‘ which achieved top 10 in the UK charts and the dance floor classic ‘Heaven’. Bono from U2 considers her an inspiration; he commented that the ‘Chimes’ cover version of their hit ‘I Still Haven’t Found What Im Looking For’ was the “only cover version I’ve heard that I enjoyed and did the original justice”, adding “at last someone’s come along to sing it properly!”. It reached No. 6 in the UK national charts. In the USA The Chimes song ‘1-2-3′ reached the Billboard Hot 100 at #86 in 1990. It spent two weeks as the chart-topper #1 on the US Hot Dance Music/Club Play chart. The follow-up ‘Heaven’, reached No. 24 in the UK and in the US, it was a #1 dance chart hit, and still remains a favorite in many DJ boxes today.
SOLO ARTIST Pauline Henry
Pauline Henry then went solo and released two albums: ‘Pauline’ and ‘Do Over’, which include hits like ‘I Feel Like Making Love’, ‘Too many people’ and ‘Sugarfree’ to name a few. Rolling Stone magazine wrote that Pauline Henry was ‘the finest singer to come from the British Isles’. Pauline then took a hiatus from the music industry and gained a Bachelors Degree in Law and a Masters Degree in Intellectual Property Law, offering workshops as a motivational speaker specialising in Copyright Law.
Since returning to the music industry in 2010 Pauline Henry has set up her own music label. Utilising her entrepreneurial passion, and drawing on more than 20 years experience as a singer and songwriter, Pauline Henry is the founder of ‘Diamond In Venus‘, which is an IP company. 2014 saw the first release of new material ‘Sunshine (Happiness)’.
Приватный:
Нет (DHT включён)
Размер:
299.82 Мб (314,381,636 байт) » файлов: 9
Участники:
0 раздают, 0 качают (0 участников всего)
Внешние участники:
2 раздают, 1 качают (3 участников всего) [ Обновить ]
No seeders - write personal message to user M0p94ok. Нет сидеров - пишите личное сообщение пользователю M0p94ok.
06:48
53
Нет комментариев. Ваш будет первым!