Поиск

(Soul) Patti LaBelle - Timeless Journey - 2004, FLAC (tracks+.cue), lossless

(Soul) Patti LaBelle - Timeless Journey - 2004, FLAC (tracks+.cue), lossless
Треклист:
Patti LaBelle / Timeless Journey
Жанр: Soul
Страна-производитель диска (релиза): EU
Год издания: 2004
Издатель (лейбл): Island Def Jam Music Group
Номер по каталогу: 602498621349
Страна исполнителя (группы): USA
Аудиокодек: FLAC (*.flac)
Тип рипа: tracks+.cue
Битрейт аудио: lossless
Продолжительность: 0:50:15.
Источник (релизер): clustert
Наличие сканов в содержимом раздачи: да
Треклист:
01. More Than Material [0:03:54.21]
02. It's Time [0:03:07.27]
03. New Day [0:03:19.63]
04. Something More [0:03:12.16]
05. Sometimes Love [0:03:48.22]
06. Hear My Cry (Featuring Floetry) [0:04:29.16]
07. Good Lovin' [0:03:34.17]
08. Mm, Mm, Mm [0:03:48.06]
09. Not Right But Real [0:04:55.36]
10. 2 Steps Away [0:04:30.10]
11. Finally Got The Nerve (Featuring Miri Ben-Ari) [0:03:57.15]
12. Unpredictable [0:03:04.62]
13. When You Smile (Featuring Carlos Santana, Shelia E, La India & Andy Vargas [0:04:34.56]
 
Лог создания рипа
Exact Audio Copy V1.0 beta 3 from 29. August 2011
Отчёт EAC об извлечении, выполненном 13. июня 2015, 19:07
Patti LaBelle / Timeless Journey
Дисковод: ASUS DRW-1814BLT Adapter: 4 ID: 0
Режим чтения : Достоверность
Использование точного потока : Да
Отключение кэша аудио : Да
Использование указателей C2 : Нет
Коррекция смещения при чтении : 6
Способность читать области Lead-in и Lead-out : Нет
Заполнение пропущенных сэмплов тишиной : Да
Удаление блоков с тишиной в начале и конце : Нет
При вычислениях CRC использовались нулевые сэмплы : Да
Интерфейс : Встроенный Win32-интерфейс для Win NT/2000
Обработка зазоров : Добавлено к предыдущему треку
Выходной формат : Пользовательский кодировщик
Выбранный битрейт : 128 kBit/s
Качество : Высокий
Добавление ID3-тега : Нет
Утилита сжатия : C:\Program Files\Exact Audio Copy\Flac\flac.exe
Дополнительные параметры : -V -8 -T "Genre=%genre%" -T "Artist=%artist%" -T "Title=%title%" -T "Album=%albumtitle%" -T "Date=%year%" -T "Tracknumber=%tracknr%" -T "Comment=EAC1.0b2 FLAC -8" %source%
TOC извлечённого CD
Трек | Старт | Длительность | Начальный сектор | Конечный сектор
---------------------------------------------------------------------
1 | 0:00.00 | 3:54.21 | 0 | 17570
2 | 3:54.21 | 3:07.27 | 17571 | 31622
3 | 7:01.48 | 3:19.63 | 31623 | 46610
4 | 10:21.36 | 3:12.16 | 46611 | 61026
5 | 13:33.52 | 3:48.22 | 61027 | 78148
6 | 17:21.74 | 4:29.16 | 78149 | 98339
7 | 21:51.15 | 3:34.17 | 98340 | 114406
8 | 25:25.32 | 3:48.06 | 114407 | 131512
9 | 29:13.38 | 4:55.36 | 131513 | 153673
10 | 34:08.74 | 4:30.10 | 153674 | 173933
11 | 38:39.09 | 3:57.15 | 173934 | 191723
12 | 42:36.24 | 3:04.62 | 191724 | 205585
13 | 45:41.11 | 4:34.56 | 205586 | 226191
Трек 1
Имя файла R:\Раздача 48\Patti LaBelle - 2004 - Timeless Journey\01 More Than Material.wav
Длина предзазора 0:00:02.00
Пиковый уровень 100.0 %
Скорость извлечения 5.0 X
Качество трека 100.0 %
CRC теста 837C53E4
CRC копии 837C53E4
Точность не определена (достоверность 10) [3CC0EEBC], AccurateRip вернул [CC4AF7A1] (AR v2)
Копирование... OK
Трек 2
Имя файла R:\Раздача 48\Patti LaBelle - 2004 - Timeless Journey\02 It's Time.wav
Пиковый уровень 100.0 %
Скорость извлечения 5.3 X
Качество трека 100.0 %
CRC теста D2EBCA21
CRC копии D2EBCA21
Точность не определена (достоверность 11) [1243B7DA], AccurateRip вернул [CC1C73BC] (AR v2)
Копирование... OK
Трек 3
Имя файла R:\Раздача 48\Patti LaBelle - 2004 - Timeless Journey\03 New Day.wav
Пиковый уровень 93.7 %
Скорость извлечения 4.3 X
Качество трека 99.9 %
CRC теста E2247F1D
CRC копии E2247F1D
Точность не определена (достоверность 11) [AE811DF1], AccurateRip вернул [755981E0] (AR v2)
Копирование... OK
Трек 4
Имя файла R:\Раздача 48\Patti LaBelle - 2004 - Timeless Journey\04 Something More.wav
Пиковый уровень 100.0 %
Скорость извлечения 4.5 X
Качество трека 99.9 %
CRC теста 054DD42B
CRC копии 054DD42B
Точность не определена (достоверность 11) [8BD2E412], AccurateRip вернул [6551797B] (AR v2)
Копирование... OK
Трек 5
Имя файла R:\Раздача 48\Patti LaBelle - 2004 - Timeless Journey\05 Sometimes Love.wav
Пиковый уровень 100.0 %
Скорость извлечения 6.7 X
Качество трека 100.0 %
CRC теста DF59F503
CRC копии DF59F503
Точность не определена (достоверность 11) [BEDC8094], AccurateRip вернул [D2DE1470] (AR v2)
Копирование... OK
Трек 6
Имя файла R:\Раздача 48\Patti LaBelle - 2004 - Timeless Journey\06 Hear My Cry (Featuring Floetry).wav
Пиковый уровень 100.0 %
Скорость извлечения 5.5 X
Качество трека 99.9 %
CRC теста 92BF8AAA
CRC копии 92BF8AAA
Точность не определена (достоверность 11) [D2522FE7], AccurateRip вернул [88FA91FA] (AR v2)
Копирование... OK
Трек 7
Имя файла R:\Раздача 48\Patti LaBelle - 2004 - Timeless Journey\07 Good Lovin'.wav
Пиковый уровень 99.7 %
Скорость извлечения 7.4 X
Качество трека 100.0 %
CRC теста 82237F34
CRC копии 82237F34
Точность не определена (достоверность 10) [120A1398], AccurateRip вернул [31733506] (AR v2)
Копирование... OK
Трек 8
Имя файла R:\Раздача 48\Patti LaBelle - 2004 - Timeless Journey\08 Mm, Mm, Mm.wav
Пиковый уровень 100.0 %
Скорость извлечения 5.8 X
Качество трека 99.9 %
CRC теста 6C949E09
CRC копии 6C949E09
Точность не определена (достоверность 10) [8D6F1DCB], AccurateRip вернул [39E75C4D] (AR v2)
Копирование... OK
Трек 9
Имя файла R:\Раздача 48\Patti LaBelle - 2004 - Timeless Journey\09 Not Right But Real.wav
Пиковый уровень 99.5 %
Скорость извлечения 6.4 X
Качество трека 99.9 %
CRC теста 77AABB7E
CRC копии 77AABB7E
Точность не определена (достоверность 11) [D22F0947], AccurateRip вернул [4E2B6932] (AR v2)
Копирование... OK
Трек 10
Имя файла R:\Раздача 48\Patti LaBelle - 2004 - Timeless Journey\10 2 Steps Away.wav
Длина предзазора 0:00:01.18
Пиковый уровень 100.0 %
Скорость извлечения 7.5 X
Качество трека 100.0 %
CRC теста 98BA9A07
CRC копии 98BA9A07
Точность не определена (достоверность 11) [75112075], AccurateRip вернул [8B85F317] (AR v2)
Копирование... OK
Трек 11
Имя файла R:\Раздача 48\Patti LaBelle - 2004 - Timeless Journey\11 Finally Got The Nerve (Featuring Miri Ben-Ari).wav
Длина предзазора 0:00:01.01
Пиковый уровень 100.0 %
Скорость извлечения 8.9 X
Качество трека 100.0 %
CRC теста 4E1F6719
CRC копии 4E1F6719
Точность не определена (достоверность 11) [A0F32B1C], AccurateRip вернул [2B4E846F] (AR v2)
Копирование... OK
Трек 12
Имя файла R:\Раздача 48\Patti LaBelle - 2004 - Timeless Journey\12 Unpredictable.wav
Пиковый уровень 100.0 %
Скорость извлечения 8.8 X
Качество трека 100.0 %
CRC теста 47A50F48
CRC копии 47A50F48
Точность не определена (достоверность 11) [0E73A213], AccurateRip вернул [07D7B7D0] (AR v2)
Копирование... OK
Трек 13
Имя файла R:\Раздача 48\Patti LaBelle - 2004 - Timeless Journey\13 When You Smile (Featuring Carlos Santana, Shelia E, La India & Andy Vargas.wav
Пиковый уровень 100.0 %
Скорость извлечения 9.6 X
Качество трека 100.0 %
CRC теста 6B27893D
CRC копии 6B27893D
Точность не определена (достоверность 10) [71AFC240], AccurateRip вернул [A75F9400] (AR v2)
Копирование... OK
Ни один трек не прошёл проверки на точность
В вашей базе может быть иной вариант штамповки диска
Ошибок не произошло
Конец отчёта
==== Контрольная сумма отчёта ECF9AB77648668334B49A455E3B22A0374D65A3EEEFFB9ABA41D1EC1DF90E286 ====
 
Содержание индексной карты (.CUE)
REM GENRE Soul
REM DATE 2004
REM DISCID 930BC70D
REM COMMENT "ExactAudioCopy v1.0b3"
CATALOG 0602498621349
PERFORMER "Patti LaBelle"
TITLE "Timeless Journey"
FILE "01 More Than Material.wav" WAVE
TRACK 01 AUDIO
TITLE "More Than Material"
PERFORMER "Patti LaBelle"
ISRC H2<J20400409
INDEX 01 00:00:00
FILE "02 It's Time.wav" WAVE
TRACK 02 AUDIO
TITLE "It's Time"
PERFORMER "Patti LaBelle"
ISRC H2<J20400412
INDEX 01 00:00:00
FILE "03 New Day.wav" WAVE
TRACK 03 AUDIO
TITLE "New Day"
PERFORMER "Patti LaBelle"
ISRC H2<J20400137
INDEX 01 00:00:00
FILE "04 Something More.wav" WAVE
TRACK 04 AUDIO
TITLE "Something More"
PERFORMER "Patti LaBelle"
ISRC H2<J20400137
INDEX 01 00:00:00
FILE "05 Sometimes Love.wav" WAVE
TRACK 05 AUDIO
TITLE "Sometimes Love"
PERFORMER "Patti LaBelle"
ISRC H2<J20400414
INDEX 01 00:00:00
FILE "06 Hear My Cry (Featuring Floetry).wav" WAVE
TRACK 06 AUDIO
TITLE "Hear My Cry (Featuring Floetry)"
PERFORMER "Patti LaBelle"
ISRC H2<J20400415
INDEX 01 00:00:00
FILE "07 Good Lovin'.wav" WAVE
TRACK 07 AUDIO
TITLE "Good Lovin'"
PERFORMER "Patti LaBelle"
ISRC H2<J20400422
INDEX 01 00:00:00
FILE "08 Mm, Mm, Mm.wav" WAVE
TRACK 08 AUDIO
TITLE "Mm, Mm, Mm"
PERFORMER "Patti LaBelle"
ISRC H2<J20400418
INDEX 01 00:00:00
FILE "09 Not Right But Real.wav" WAVE
TRACK 09 AUDIO
TITLE "Not Right But Real"
PERFORMER "Patti LaBelle"
ISRC H2<J20400421
INDEX 01 00:00:00
TRACK 10 AUDIO
TITLE "2 Steps Away"
PERFORMER "Patti LaBelle"
ISRC H2<J20400416
INDEX 00 04:54:18
FILE "10 2 Steps Away.wav" WAVE
INDEX 01 00:00:00
TRACK 11 AUDIO
TITLE "Finally Got The Nerve (Featuring Miri Ben-Ari)"
PERFORMER "Patti LaBelle"
ISRC H2<J20400417
INDEX 00 04:29:09
FILE "11 Finally Got The Nerve (Featuring Miri Ben-Ari).wav" WAVE
INDEX 01 00:00:00
FILE "12 Unpredictable.wav" WAVE
TRACK 12 AUDIO
TITLE "Unpredictable"
PERFORMER "Patti LaBelle"
ISRC H2<J20400419
INDEX 01 00:00:00
FILE "13 When You Smile (Featuring Carlos Santana, Shelia E, La India & Andy Vargas.wav" WAVE
TRACK 13 AUDIO
TITLE "When You Smile (Featuring Carlos Santana, Shelia E, La India & Andy Vargas"
PERFORMER "Patti LaBelle"
ISRC H2<J20400420
INDEX 01 00:00:00
Приватный:
Нет (DHT включён)
Размер:
351.41 Мб (368,478,906 байт) » файлов: 23
Участники:
0 раздают, 1 качают (1 участников всего)
Внешние участники:
2 раздают, 1 качают (3 участников всего) [ Обновить ]
Скорость:
296.90 Кб/c 0/c
Есть вопросы - пишите личное сообщение пользователю M0p94ok.
06:46
78
Нет комментариев. Ваш будет первым!