Поиск

(Funk, Soul, R&B) [CD] Toni Green - More Love - 2005, FLAC (image+.cue), lossless

(Funk, Soul, R&B) [CD] Toni Green - More Love - 2005, FLAC (image+.cue), lossless
Треклист:
Toni Green - More Love Жанр: Funk, Soul, R&B
Носитель: CD
Страна-производитель диска (релиза): USA
Год издания: 2005
Издатель (лейбл): PEG Records
Номер по каталогу: PEGD 1004
Аудиокодек: FLAC (*.flac)
Тип рипа: image+.cue
Битрейт аудио: lossless
Продолжительность: 49:07
Rip by RunawayTrane
Наличие сканов в содержимом раздачи: да
Треклист:
01. I Am Ready (4:17)
02. Angel (4:07)
03. More Love (3:57)
04. Best Woman (4:49)
05. Hot (4:12)
06. Free (4:56)
07. Bou Yow (3:51)
08. Mr. Wonderful (3:43)
09. Nothing From Nothing (4:17)
10. Bop (3:46)
11. Free (Part 2) (7:12)
 
 
Лог создания рипа
Exact Audio Copy V1.3 from 2. September 2016
EAC extraction logfile from 22. May 2017, 0:31
Toni Green / More Love
Used drive : Memorex 52MAXX 3252AJ1 Adapter: 1 ID: 1
Read mode : Secure
Utilize accurate stream : Yes
Defeat audio cache : Yes
Make use of C2 pointers : No
Read offset correction : 6
Overread into Lead-In and Lead-Out : No
Fill up missing offset samples with silence : Yes
Delete leading and trailing silent blocks : No
Null samples used in CRC calculations : Yes
Used interface : Native Win32 interface for Win NT & 2000
Used output format : User Defined Encoder
Selected bitrate : 896 kBit/s
Quality : High
Add ID3 tag : No
Command line compressor : C:\Program Files (x86)\Exact Audio Copy\Flac\flac.exe
Additional command line options : %ishigh%-V -p -l 12 -b 4096 -m -e -r 8%ishigh%%islow%-5%islow% --replay-gain -T "ARTIST=%artist%" -T "ALBUM=%albumtitle%" -T "TITLE=%title%" -T "DATE=%year%" -T "TRACKNUMBER=%tracknr%" -T "GENRE=%genre%" -T "ENSEMBLE=%albuminterpret%" -T "ALBUMARTIST=%albumartist%" -T "COMPOSER=%albumcomposer%" -T "DISCNUMBER=%cdnumber%" -T "TOTALDISCS=%totalcds%" -T "TOTALTRACKS=%numtracks%" -T "SOURCEMEDIA=CD" -T "COMMENT=%comment%" %hascover%-T "PICTURE=%coverfile%"%hascover% %source%
TOC of the extracted CD
Track | Start | Length | Start sector | End sector
---------------------------------------------------------
1 | 0:00.00 | 4:17.06 | 0 | 19280
2 | 4:17.06 | 4:07.03 | 19281 | 37808
3 | 8:24.09 | 3:56.45 | 37809 | 55553
4 | 12:20.54 | 4:49.37 | 55554 | 77265
5 | 17:10.16 | 4:11.64 | 77266 | 96154
6 | 21:22.05 | 4:56.15 | 96155 | 118369
7 | 26:18.20 | 3:51.11 | 118370 | 135705
8 | 30:09.31 | 3:42.47 | 135706 | 152402
9 | 33:52.03 | 4:16.50 | 152403 | 171652
10 | 38:08.53 | 3:45.52 | 171653 | 188579
11 | 41:54.30 | 7:12.10 | 188580 | 220989
Range status and errors
Selected range
Filename C:\Users\M@ce\Music\Archives\Rips\Burn WAV\Toni Green - More Love.wav
Peak level 97.7 %
Extraction speed 8.9 X
Range quality 99.9 %
Test CRC 1EFEEF81
Copy CRC 1EFEEF81
Copy OK
No errors occurred
AccurateRip summary
Track 1 not present in database
Track 2 not present in database
Track 3 not present in database
Track 4 not present in database
Track 5 not present in database
Track 6 not present in database
Track 7 not present in database
Track 8 not present in database
Track 9 not present in database
Track 10 not present in database
Track 11 not present in database
None of the tracks are present in the AccurateRip database
End of status report
---- CUETools DB Plugin V2.1.6
[CTDB TOCID: q4E1qOl0zQEJsGIFnLp.yQ5DajU-] found
Submit result: q4E1qOl0zQEJsGIFnLp.yQ5DajU- has been confirmed
Track | CTDB Status
1 | (1/1) Accurately ripped
2 | (1/1) Accurately ripped
3 | (1/1) Accurately ripped
4 | (1/1) Accurately ripped
5 | (1/1) Accurately ripped
6 | (1/1) Accurately ripped
7 | (1/1) Accurately ripped
8 | (1/1) Accurately ripped
9 | (1/1) Accurately ripped
10 | (1/1) Accurately ripped
11 | (1/1) Accurately ripped
==== Log checksum A0E62D8519D829D55852174E597F695069ED689F29502FACF22AFBF7DCF611B4 ====
 
Содержание индексной карты (.CUE)
REM GENRE Soul
REM DATE 2005
REM DISCID 7C0B820B
REM COMMENT "ExactAudioCopy v1.3"
PERFORMER "Toni Green"
TITLE "More Love"
REM COMPOSER "Dan Boga / Toni Green / Lieutenant Wilks, Jr. / Morris J. Williams"
FILE "Toni Green - More Love.flac" WAVE
TRACK 01 AUDIO
TITLE "I Am Ready"
PERFORMER "Toni Green"
REM COMPOSER "Dan Boga / Toni Green / Lieutenant Wilks, Jr. / Morris J. Williams"
INDEX 01 00:00:00
TRACK 02 AUDIO
TITLE "Angel"
PERFORMER "Toni Green"
REM COMPOSER "Dan Boga / Toni Green / Lieutenant Wilks, Jr. / Morris J. Williams"
INDEX 01 04:17:06
TRACK 03 AUDIO
TITLE "More Love"
PERFORMER "Toni Green"
REM COMPOSER "Dan Boga / John Cummings / Toni Green / Morris J. Williams"
INDEX 01 08:24:09
TRACK 04 AUDIO
TITLE "Best Woman"
PERFORMER "Toni Green"
REM COMPOSER "Toni Green / Lieutenant Wilks, Jr. / Morris J. Williams"
INDEX 01 12:20:54
TRACK 05 AUDIO
TITLE "Hot"
PERFORMER "Toni Green"
REM COMPOSER "Dan Boga / Toni Green / Lieutenant Wilks, Jr. / Morris J. Williams"
INDEX 01 17:10:16
TRACK 06 AUDIO
TITLE "Free"
PERFORMER "Toni Green"
REM COMPOSER "Dan Boga / John Cummings / Toni Green / Morris J. Williams"
INDEX 01 21:22:05
TRACK 07 AUDIO
TITLE "Bou Yow"
PERFORMER "Toni Green"
REM COMPOSER "Dan Boga / Toni Green / Lieutenant Wilks, Jr. / Morris J. Williams"
INDEX 01 26:18:20
TRACK 08 AUDIO
TITLE "Mr. Wonderful"
PERFORMER "Toni Green"
REM COMPOSER "Dan Boga / Toni Green / Lieutenant Wilks, Jr. / Morris J. Williams"
INDEX 01 30:09:31
TRACK 09 AUDIO
TITLE "Nothing From Nothing"
PERFORMER "Toni Green"
REM COMPOSER "Dan Boga / Toni Green / Lieutenant Wilks, Jr. / Morris J. Williams"
INDEX 01 33:52:03
TRACK 10 AUDIO
TITLE "Bop"
PERFORMER "Toni Green"
REM COMPOSER "Dan Boga / Toni Green / Lieutenant Wilks, Jr. / Morris J. Williams"
INDEX 01 38:08:53
TRACK 11 AUDIO
TITLE "Free (Part 2)"
PERFORMER "Toni Green"
REM COMPOSER "Dan Boga / Toni Green / Lieutenant Wilks, Jr. / Morris J. Williams"
INDEX 01 41:54:30
 
Об альбоме (сборнике)
For those of you that think soul music is something extinct, how wrong you are , because as you sleep soul music is still awake and very much alive. One of the Artist you may be sleeping on is Toni Green, the Essence of Soul. At 17 yrs old Toni toured with Hot Buttered Soul with the great Issac Hayes and then with the wonderful Luther Ingram. Opportunities like that on your resume normally would have you in high demand, but who can decipher the politics of the music world. Over the last few years Toni Green has put several CD's that all deserve to be heard from Mixed Emotions to the latest More Love, I for one have not heard a sour note nor a bad song. In my not so humble opinion Toni Green is equal to the task of living up, and adding to the legacy of Soul Music no matter what label we put on it now. Her stage presence is ferocious and feminine, a crowd pleaser and a big teaser, was that not the stuff of Jackie Wilson and so many other performers who knew live performance is where people truly remember you? The title of her latest CD is ironic since the biz-ness of Music is showing the sister no love. Toni though, shows she still has more love for her fan base with this strong selection of soul serenades and bluesy ballads. From the title More Love to Angel, Toni sings her ass off, but it seems almost like she is speaking in some urgent manner to express her love & life lessons, in order to tell us how serious all this life can be. Do me a favor and check out the song "Best Woman" great example of telling somebody they have lost you and they will never find another like you. Free (not Denise Williams song) is my favorite vocal on this CD and is so good they bless us with Free pt 2. Let me just say right now Toni Green is my constant companion...in my CD player, so check out all her music, and put her in your CD player too. For then you will be showing Toni Green, More Love, just like she deserves, after-all she is the Essence of Soul.
~ Enorman Harris ~
SoulPatrol.com
Приватный:
Нет (DHT включён)
Размер:
394.15 Мб (413,299,699 байт) » файлов: 11
Участники:
0 раздают, 0 качают (0 участников всего)
Внешние участники:
2 раздают, 1 качают (3 участников всего) [ Обновить ]
Есть вопросы - пишите личное сообщение пользователю M0p94ok.
13:55
72
Нет комментариев. Ваш будет первым!