Поиск

(Funk, Soul, Disco) [CD] The Undisputed Truth - Method To The Madness (1976) & Smokin' (1979) (Double Set) - 2015, FLAC (image+.cue), lossless

(Funk, Soul, Disco) [CD] The Undisputed Truth - Method To The Madness (1976) & Smokin' (1979) (Double Set) - 2015, FLAC (image+.cue), lossless
Треклист:
The Undisputed Truth
Method To The Madness (1976) & Smokin' (1979)

Жанр: Funk, Soul, Disco
Носитель: CD
Год издания: 2015
Издатель (лейбл): Robinsongs/Cherry Red Records
Номер по каталогу: WROBIN2CDD
Аудиокодек: FLAC (*.flac)
Тип рипа: image+.cue
Битрейт аудио: lossless
Продолжительность: 48:51 / 40:47
Rip by RunawayTrane
Наличие сканов в содержимом раздачи: да 
 
 
Disc 1 - Method To The Madness (1976)
Треклист:
01. Cosmic Contact (3:50)
02. Method To The Madness (3:59)
03. Sunshine (5:16)
04. You + Me = Love (11:16)
05. Hole In The Wall (3:24)
06. Loose (3:19)
07. Life Ain't So Easy (4:02)
08. Take A Vacation From Life (And Visit Your Dreams) (4:32)
09. Let's Go Down To The Disco (9:13)
 
 
Лог создания рипа
Exact Audio Copy V1.3 from 2. September 2016
EAC extraction logfile from 24. April 2017, 13:24
The Undisputed Truth / Method To The Madness & Smokin' [Disc 1]
Used drive : Memorex 52MAXX 3252AJ1 Adapter: 1 ID: 1
Read mode : Secure
Utilize accurate stream : Yes
Defeat audio cache : Yes
Make use of C2 pointers : No
Read offset correction : 6
Overread into Lead-In and Lead-Out : No
Fill up missing offset samples with silence : Yes
Delete leading and trailing silent blocks : No
Null samples used in CRC calculations : Yes
Used interface : Native Win32 interface for Win NT & 2000
Used output format : User Defined Encoder
Selected bitrate : 896 kBit/s
Quality : High
Add ID3 tag : No
Command line compressor : C:\Program Files (x86)\Exact Audio Copy\Flac\flac.exe
Additional command line options : %ishigh%-V -p -l 12 -b 4096 -m -e -r 8%ishigh%%islow%-5%islow% --replay-gain -T "ARTIST=%artist%" -T "ALBUM=%albumtitle%" -T "TITLE=%title%" -T "DATE=%year%" -T "TRACKNUMBER=%tracknr%" -T "GENRE=%genre%" -T "ENSEMBLE=%albuminterpret%" -T "ALBUMARTIST=%albumartist%" -T "COMPOSER=%albumcomposer%" -T "DISCNUMBER=%cdnumber%" -T "TOTALDISCS=%totalcds%" -T "TOTALTRACKS=%numtracks%" -T "SOURCEMEDIA=CD" -T "COMMENT=%comment%" %hascover%-T "PICTURE=%coverfile%"%hascover% %source%
TOC of the extracted CD
Track | Start | Length | Start sector | End sector
---------------------------------------------------------
1 | 0:00.00 | 3:50.20 | 0 | 17269
2 | 3:50.20 | 3:59.02 | 17270 | 35196
3 | 7:49.22 | 5:16.08 | 35197 | 58904
4 | 13:05.30 | 11:16.16 | 58905 | 109620
5 | 24:21.46 | 3:23.48 | 109621 | 124893
6 | 27:45.19 | 3:19.13 | 124894 | 139831
7 | 31:04.32 | 4:01.68 | 139832 | 157974
8 | 35:06.25 | 4:31.40 | 157975 | 178339
9 | 39:37.65 | 9:13.00 | 178340 | 219814
Range status and errors
Selected range
Filename C:\Users\M@ce\Music\Archives\Rips\Burn WAV\The Undisputed Truth - Method To The Madness & Smokin' [Disc 1].wav
Peak level 100.0 %
Extraction speed 8.2 X
Range quality 99.9 %
Test CRC D8380C07
Copy CRC D8380C07
Copy OK
No errors occurred
AccurateRip summary
Track 1 accurately ripped (confidence 2) [9F1A0D09] (AR v2)
Track 2 accurately ripped (confidence 2) [38E67A9F] (AR v2)
Track 3 accurately ripped (confidence 2) [1055F149] (AR v2)
Track 4 accurately ripped (confidence 2) [DBE16A72] (AR v2)
Track 5 accurately ripped (confidence 2) [22244B17] (AR v2)
Track 6 accurately ripped (confidence 2) [B41C9259] (AR v2)
Track 7 accurately ripped (confidence 2) [29DFD070] (AR v2)
Track 8 accurately ripped (confidence 2) [4122702A] (AR v2)
Track 9 accurately ripped (confidence 2) [A990A3B7] (AR v2)
All tracks accurately ripped
End of status report
---- CUETools DB Plugin V2.1.6
[CTDB TOCID: 5coeQmrUagzAoEk4MEoyCqGQjyI-] found
Submit result: 5coeQmrUagzAoEk4MEoyCqGQjyI- has been confirmed
Track | CTDB Status
1 | (2/2) Accurately ripped
2 | (2/2) Accurately ripped
3 | (2/2) Accurately ripped
4 | (2/2) Accurately ripped
5 | (2/2) Accurately ripped
6 | (2/2) Accurately ripped
7 | (2/2) Accurately ripped
8 | (2/2) Accurately ripped
9 | (2/2) Accurately ripped
==== Log checksum 7F639CDB9ECC755A926FAC459ABCAFDBB636D40D57865F6FD36323D8087FCE33 ====
 
Содержание индексной карты (.CUE)
REM GENRE Soul
REM DATE 2015
REM DISCID 820B7209
REM COMMENT "ExactAudioCopy v1.3"
PERFORMER "The Undisputed Truth"
TITLE "Method To The Madness & Smokin' [Disc 1]"
REM COMPOSER "Norman Whitfield"
FILE "The Undisputed Truth - Method To The Madness & Smokin' [Disc 1].flac" WAVE
TRACK 01 AUDIO
TITLE "Cosmic Contact"
PERFORMER "The Undisputed Truth"
REM COMPOSER "Norman Whitfield"
FLAGS DCP
INDEX 01 00:00:00
TRACK 02 AUDIO
TITLE "Method To The Madness"
PERFORMER "The Undisputed Truth"
REM COMPOSER "Norman Whitfield"
FLAGS DCP
INDEX 00 03:48:20
INDEX 01 03:50:20
TRACK 03 AUDIO
TITLE "Sunshine"
PERFORMER "The Undisputed Truth"
REM COMPOSER "Norman Whitfield"
FLAGS DCP
INDEX 00 07:47:22
INDEX 01 07:49:22
TRACK 04 AUDIO
TITLE "You + Me = Love"
PERFORMER "The Undisputed Truth"
REM COMPOSER "Norman Whitfield"
FLAGS DCP
INDEX 00 13:03:30
INDEX 01 13:05:30
TRACK 05 AUDIO
TITLE "Hole In The Wall"
PERFORMER "The Undisputed Truth"
REM COMPOSER "Rochelle Runnells / Norman Whitfield"
FLAGS DCP
INDEX 00 24:19:46
INDEX 01 24:21:46
TRACK 06 AUDIO
TITLE "Loose"
PERFORMER "The Undisputed Truth"
REM COMPOSER "Rochelle Runnells / Norman Whitfield"
FLAGS DCP
INDEX 00 27:43:19
INDEX 01 27:45:19
TRACK 07 AUDIO
TITLE "Life Ain't So Easy"
PERFORMER "The Undisputed Truth"
REM COMPOSER "Norman Whitfield"
FLAGS DCP
INDEX 00 31:02:32
INDEX 01 31:04:32
TRACK 08 AUDIO
TITLE "Take A Vacation From Life (And Visit Your Dreams)"
PERFORMER "The Undisputed Truth"
REM COMPOSER "John McGhee / Norman Whitfield"
FLAGS DCP
INDEX 00 35:04:25
INDEX 01 35:06:25
TRACK 09 AUDIO
TITLE "Let's Go Down To The Disco"
PERFORMER "The Undisputed Truth"
REM COMPOSER "Norman Whitfield"
FLAGS DCP
INDEX 00 39:35:65
INDEX 01 39:37:65
 
Disc 2 - Smokin' (1979)
Треклист:
01. Show Time (8:58)
02. Talkin' To The Wind (4:10)
03. Atomic Funk (3:53)
04. I Can't Get Enough Of Your Love (4:10)
05. Space Machine (6:55)
06. Tazmainian Monster (3:49)
07. Sandman (4:15)
08. Misunderstood (4:37)
 
 
Лог создания рипа
Exact Audio Copy V1.3 from 2. September 2016
EAC extraction logfile from 24. April 2017, 13:47
The Undisputed Truth / Method To The Madness & Smokin' [Disc 2]
Used drive : Memorex 52MAXX 3252AJ1 Adapter: 1 ID: 1
Read mode : Secure
Utilize accurate stream : Yes
Defeat audio cache : Yes
Make use of C2 pointers : No
Read offset correction : 6
Overread into Lead-In and Lead-Out : No
Fill up missing offset samples with silence : Yes
Delete leading and trailing silent blocks : No
Null samples used in CRC calculations : Yes
Used interface : Native Win32 interface for Win NT & 2000
Used output format : User Defined Encoder
Selected bitrate : 896 kBit/s
Quality : High
Add ID3 tag : No
Command line compressor : C:\Program Files (x86)\Exact Audio Copy\Flac\flac.exe
Additional command line options : %ishigh%-V -p -l 12 -b 4096 -m -e -r 8%ishigh%%islow%-5%islow% --replay-gain -T "ARTIST=%artist%" -T "ALBUM=%albumtitle%" -T "TITLE=%title%" -T "DATE=%year%" -T "TRACKNUMBER=%tracknr%" -T "GENRE=%genre%" -T "ENSEMBLE=%albuminterpret%" -T "ALBUMARTIST=%albumartist%" -T "COMPOSER=%albumcomposer%" -T "DISCNUMBER=%cdnumber%" -T "TOTALDISCS=%totalcds%" -T "TOTALTRACKS=%numtracks%" -T "SOURCEMEDIA=CD" -T "COMMENT=%comment%" %hascover%-T "PICTURE=%coverfile%"%hascover% %source%
TOC of the extracted CD
Track | Start | Length | Start sector | End sector
---------------------------------------------------------
1 | 0:00.00 | 8:58.19 | 0 | 40368
2 | 8:58.19 | 4:10.04 | 40369 | 59122
3 | 13:08.23 | 3:53.23 | 59123 | 76620
4 | 17:01.46 | 4:10.01 | 76621 | 95371
5 | 21:11.47 | 6:54.68 | 95372 | 126489
6 | 28:06.40 | 3:48.48 | 126490 | 143637
7 | 31:55.13 | 4:14.69 | 143638 | 162756
8 | 36:10.07 | 4:36.47 | 162757 | 183503
Range status and errors
Selected range
Filename C:\Users\M@ce\Music\Archives\Rips\Burn WAV\The Undisputed Truth - Method To The Madness & Smokin' [Disc 2].wav
Peak level 100.0 %
Extraction speed 7.9 X
Range quality 100.0 %
Test CRC 6D2E600C
Copy CRC 6D2E600C
Copy OK
No errors occurred
AccurateRip summary
Track 1 accurately ripped (confidence 2) [E0600962] (AR v2)
Track 2 accurately ripped (confidence 2) [38921F49] (AR v2)
Track 3 accurately ripped (confidence 2) [1B91804A] (AR v2)
Track 4 accurately ripped (confidence 2) [D3796434] (AR v2)
Track 5 accurately ripped (confidence 2) [9AB3B4A5] (AR v2)
Track 6 accurately ripped (confidence 2) [718EC78B] (AR v2)
Track 7 accurately ripped (confidence 2) [B3AE43FA] (AR v2)
Track 8 accurately ripped (confidence 2) [41CDEF90] (AR v2)
All tracks accurately ripped
End of status report
---- CUETools DB Plugin V2.1.6
[CTDB TOCID: l_d4yfxBAafczGN7ClZ9kcETpxU-] found
Submit result: l_d4yfxBAafczGN7ClZ9kcETpxU- has been confirmed
Track | CTDB Status
1 | (2/2) Accurately ripped
2 | (2/2) Accurately ripped
3 | (2/2) Accurately ripped
4 | (2/2) Accurately ripped
5 | (2/2) Accurately ripped
6 | (2/2) Accurately ripped
7 | (2/2) Accurately ripped
8 | (2/2) Accurately ripped
==== Log checksum 442B869BAE8ED2B91564CB5D97C95B2FBCE5523814D4E7CE1873F7D1739A46AE ====
 
Содержание индексной карты (.CUE)
REM GENRE Soul
REM DATE 2015
REM DISCID 63098E08
REM COMMENT "ExactAudioCopy v1.3"
PERFORMER "The Undisputed Truth"
TITLE "Method To The Madness & Smokin' [Disc 2]"
REM COMPOSER "Norman Whitfield"
FILE "The Undisputed Truth - Method To The Madness & Smokin' [Disc 2].flac" WAVE
TRACK 01 AUDIO
TITLE "Show Time"
PERFORMER "The Undisputed Truth"
REM COMPOSER "Norman Whitfield"
FLAGS DCP
INDEX 01 00:00:00
TRACK 02 AUDIO
TITLE "Talkin' To The Wind"
PERFORMER "The Undisputed Truth"
REM COMPOSER "Norman Whitfield"
FLAGS DCP
INDEX 00 08:56:19
INDEX 01 08:58:19
TRACK 03 AUDIO
TITLE "Atomic Funk"
PERFORMER "The Undisputed Truth"
REM COMPOSER "Robert Franklin Justice / LaMorris Payne"
FLAGS DCP
INDEX 00 13:06:23
INDEX 01 13:08:23
TRACK 04 AUDIO
TITLE "I Can't Get Enough Of Your Love"
PERFORMER "The Undisputed Truth"
REM COMPOSER "Isadora Martin"
FLAGS DCP
INDEX 00 16:59:46
INDEX 01 17:01:46
TRACK 05 AUDIO
TITLE "Space Machine"
PERFORMER "The Undisputed Truth"
REM COMPOSER "Norman Whitfield"
FLAGS DCP
INDEX 00 21:09:47
INDEX 01 21:11:47
TRACK 06 AUDIO
TITLE "Tazmainian Monster"
PERFORMER "The Undisputed Truth"
REM COMPOSER "Norman Whitfield"
FLAGS DCP
INDEX 00 28:04:40
INDEX 01 28:06:40
TRACK 07 AUDIO
TITLE "Sandman"
PERFORMER "The Undisputed Truth"
REM COMPOSER "Miles Gregory"
FLAGS DCP
INDEX 00 31:53:13
INDEX 01 31:55:13
TRACK 08 AUDIO
TITLE "Misunderstood"
PERFORMER "The Undisputed Truth"
REM COMPOSER "Marcy Thomas"
FLAGS DCP
INDEX 00 36:08:07
INDEX 01 36:10:07
 
Об альбоме (сборнике)
Two gems from The Undisputed Truth – back to back in a single package. First up is Method To The Madness – a killer classic from the second chapter of the Undisputed Truth – that time when the group stepped away from their Motown home, and followed producer/creator Norman Whitfield to his own label in California. The shift of record companies also marks a cool shift in styles too – an approach that still has all the bold, bassy elements you'd know from the earlier hits – but one that also has some fuller, more cosmic elements too – which are hinted at by the image on the cover. The set begins with a weird electronic spoken number that's almost experimental – then brings up the bass for a bit of heavy funk, while also using electric elements in a way that really points the way to sounds that other big funk groups would cop at the start of the 80s – but which really sound fresh here in the hands of Undisputed Truth. Titles include "Sunshine", "Take A Vacation From Life (And Visit Your Dreams)", "Life Ain't So Easy", "You + Me = Love", "Cosmic Contact", "Hole In The Wall", and "Let's Go Down To The Disco". Smokin has The Undisputed Truth still going very strong at the end of the 70s – working with original producer Norman Whitfield, in a groove that's every bit as wonderful as their early years. There's a killer mix of funk and deeper soul here that few other acts could handle this well – a way of hitting the flashy funk of Sly & The Family Stone or Graham Central Station – but also not falling into any showbiz traps, either – in a mode that really his the group not only respecting the role of each member, but also working together in a very cohesive way on the album. The result is a great little set that balances funky grooves with some excellent cosmic soul cuts – supported by great session work from giants like Wah Wah Watson, Walt Downing, and Jack Ashford. A few cool keyboard lines further cement the sound of the record – and titles include "Show Time", "Space Machine", "I Can't Get Enough Of Your Love", "Misunderstood", "Sandman", "Atomic Funk", and "Talkin To The Wind".
~Review by Dusty Groove, Inc.
Приватный:
Нет (DHT включён)
Размер:
640.21 Мб (671,307,099 байт) » файлов: 21
Участники:
0 раздают, 1 качают (1 участников всего)
Внешние участники:
2 раздают, 1 качают (3 участников всего) [ Обновить ]
Есть вопросы - пишите личное сообщение пользователю M0p94ok.
13:54
64
Нет комментариев. Ваш будет первым!