Поиск

(Funk, Soul, R&B) [CD] The Gap Band - The Gap Band II (1979) - 2014, FLAC (tracks+.cue), lossless

(Funk, Soul, R&B) [CD] The Gap Band - The Gap Band II (1979) - 2014, FLAC (tracks+.cue), lossless
Треклист:
The Gap Band - The Gap Band II (1979)
Жанр: Funk, Soul, R&B
Носитель: CD
Год издания: 2014
Издатель (лейбл): Mercury Records
Номер по каталогу: UICY-76626
Аудиокодек: FLAC (*.flac)
Тип рипа: tracks+.cue
Битрейт аудио: lossless
Продолжительность: 39:03
Rip by JET 1
Наличие сканов в содержимом раздачи: да
Треклист:
01. Steppin' Out (4:28)
02. No Hiding Place (5:39)
03. I Don't Believe You Want To Get Up And Dance (Oops!) (8:43)
04. Who Do You Call (5:00)
05. You Are My High (5:40)
06. Party Lights (3:48)
07. The Boys Are Back In Town (5:46)
 
 
Лог создания рипа
Exact Audio Copy V1.0 beta 3 from 29. August 2011
EAC extraction logfile from 31. October 2015, 8:30
The Gap Band / The Gap Band II
Used drive : GENERIC CDRCB05 Adapter: 4 ID: 0
Read mode : Secure
Utilize accurate stream : Yes
Defeat audio cache : Yes
Make use of C2 pointers : No
Read offset correction : 102
Overread into Lead-In and Lead-Out : No
Fill up missing offset samples with silence : Yes
Delete leading and trailing silent blocks : No
Null samples used in CRC calculations : Yes
Used interface : Native Win32 interface for Win NT & 2000
Gap handling : Appended to previous track
Used output format : User Defined Encoder
Selected bitrate : 1024 kBit/s
Quality : High
Add ID3 tag : No
Command line compressor : C:\Program Files\FLAC\flac.exe
Additional command line options : -8 -V -T "ARTIST=%artist%" -T "TITLE=%title%" -T "ALBUM=%albumtitle%" -T "DATE=%year%" -T "TRACKNUMBER=%tracknr%" -T "GENRE=%genre%" -T "PERFORMER=%albuminterpret%" -T "COMPOSER=%composer%" %haslyrics%--tag-from-file=LYRICS="%lyricsfile%"%haslyrics% -T "ALBUMARTIST=%albumartist%" -T "DISCNUMBER=%cdnumber%" -T "TOTALDISCS=%totalcds%" -T "TOTALTRACKS=%numtracks%" -T "COMMENT=%comment%" %source% -o %dest%
TOC of the extracted CD
Track | Start | Length | Start sector | End sector
---------------------------------------------------------
1 | 0:00.32 | 4:27.58 | 32 | 20114
2 | 4:28.15 | 5:38.67 | 20115 | 45531
3 | 10:07.07 | 8:42.50 | 45532 | 84731
4 | 18:49.57 | 4:59.40 | 84732 | 107196
5 | 23:49.22 | 5:40.28 | 107197 | 132724
6 | 29:29.50 | 3:48.07 | 132725 | 149831
7 | 33:17.57 | 5:45.43 | 149832 | 175749
Track 1
Filename G:\POSTS\The Gap Band - The Gap Band II (1979) [2014 Japan]\01 - Steppin' Out.wav
Pre-gap length 0:00:02.32
Peak level 87.9 %
Extraction speed 2.4 X
Track quality 100.0 %
Test CRC E383B70D
Copy CRC E383B70D
Cannot be verified as accurate (confidence 5) [52ED564D], AccurateRip returned [21109F4D] (AR v2)
Copy OK
Track 2
Filename G:\POSTS\The Gap Band - The Gap Band II (1979) [2014 Japan]\02 - No Hiding Place.wav
Pre-gap length 0:00:02.13
Peak level 95.6 %
Extraction speed 2.8 X
Track quality 100.0 %
Test CRC 67A33113
Copy CRC 67A33113
Cannot be verified as accurate (confidence 6) [0E958E13], AccurateRip returned [1B75EC3A] (AR v2)
Copy OK
Track 3
Filename G:\POSTS\The Gap Band - The Gap Band II (1979) [2014 Japan]\03 - I Don't Believe You Want To Get Up And Dance (Oops!).wav
Pre-gap length 0:00:03.72
Peak level 94.3 %
Extraction speed 3.1 X
Track quality 100.0 %
Test CRC 9AFD4420
Copy CRC 9AFD4420
Cannot be verified as accurate (confidence 6) [1DCB1E6F], AccurateRip returned [B3B3264F] (AR v2)
Copy OK
Track 4
Filename G:\POSTS\The Gap Band - The Gap Band II (1979) [2014 Japan]\04 - Who Do You Call.wav
Pre-gap length 0:00:03.07
Peak level 100.0 %
Extraction speed 3.4 X
Track quality 100.0 %
Test CRC 254B6FB0
Copy CRC 254B6FB0
Cannot be verified as accurate (confidence 7) [3159DDDD], AccurateRip returned [996EEA70] (AR v2)
Copy OK
Track 5
Filename G:\POSTS\The Gap Band - The Gap Band II (1979) [2014 Japan]\05 - You Are My High.wav
Pre-gap length 0:00:01.55
Peak level 87.1 %
Extraction speed 3.7 X
Track quality 100.0 %
Test CRC FDEB2DFE
Copy CRC FDEB2DFE
Cannot be verified as accurate (confidence 6) [8C367781], AccurateRip returned [639B87FE] (AR v2)
Copy OK
Track 6
Filename G:\POSTS\The Gap Band - The Gap Band II (1979) [2014 Japan]\06 - Party Lights.wav
Pre-gap length 0:00:01.50
Peak level 100.0 %
Extraction speed 3.2 X
Track quality 99.9 %
Test CRC C5B71E2C
Copy CRC C5B71E2C
Cannot be verified as accurate (confidence 5) [DA7B2FDD], AccurateRip returned [0F60399C] (AR v2)
Copy OK
Track 7
Filename G:\POSTS\The Gap Band - The Gap Band II (1979) [2014 Japan]\07 - The Boys Are Back In Town.wav
Pre-gap length 0:00:02.30
Peak level 83.6 %
Extraction speed 4.0 X
Track quality 100.0 %
Test CRC 81082E3D
Copy CRC 81082E3D
Cannot be verified as accurate (confidence 5) [A2DD196D], AccurateRip returned [A31467A4] (AR v2)
Copy OK
No tracks could be verified as accurate
You may have a different pressing from the one(s) in the database
No errors occurred
End of status report
==== Log checksum A7F612D809F7E9C052EDE2601BF7556493C9A1CAEB7DE3C87BFF6832F38E07FB ====
 
Содержание индексной карты (.CUE)
REM GENRE Funk
REM DATE 1979
REM DISCID 55092707
REM COMMENT "ExactAudioCopy v1.0b3"
PERFORMER "The Gap Band"
TITLE "The Gap Band II"
FILE "01 - Steppin' Out.wav" WAVE
TRACK 01 AUDIO
TITLE "Steppin' Out"
PERFORMER "The Gap Band"
PREGAP 00:00:32
INDEX 01 00:00:00
TRACK 02 AUDIO
TITLE "No Hiding Place"
PERFORMER "The Gap Band"
INDEX 00 04:25:45
FILE "02 - No Hiding Place.wav" WAVE
INDEX 01 00:00:00
TRACK 03 AUDIO
TITLE "I Don't Believe You Want To Get Up And Dance (Oops!)"
PERFORMER "The Gap Band"
INDEX 00 05:34:70
FILE "03 - I Don't Believe You Want To Get Up And Dance (Oops!).wav" WAVE
INDEX 01 00:00:00
TRACK 04 AUDIO
TITLE "Who Do You Call"
PERFORMER "The Gap Band"
INDEX 00 08:39:43
FILE "04 - Who Do You Call.wav" WAVE
INDEX 01 00:00:00
TRACK 05 AUDIO
TITLE "You Are My High"
PERFORMER "The Gap Band"
INDEX 00 04:57:60
FILE "05 - You Are My High.wav" WAVE
INDEX 01 00:00:00
TRACK 06 AUDIO
TITLE "Party Lights"
PERFORMER "The Gap Band"
INDEX 00 05:38:53
FILE "06 - Party Lights.wav" WAVE
INDEX 01 00:00:00
TRACK 07 AUDIO
TITLE "The Boys Are Back In Town"
PERFORMER "The Gap Band"
INDEX 00 03:45:52
FILE "07 - The Boys Are Back In Town.wav" WAVE
INDEX 01 00:00:00
 
Состав
Credits:
Arranged By [Strings] – Benjamin Wright (tracks: 3,4)
Backing Vocals – Lois Peoples, Angela Smith, Calvin Yarbrough, Gail Johnson, Howard Huntsberry, Robert "Goodie" Whitfield
Backing Vocals, Engineer [Assistant] – Rudolph Taylor
Bass, Backing Vocals – Robert Wilson
Drums – Ronnie Kaufman
Drums, Percussion – Raymond Calhoun
Engineer [Assistant] – Gerry Brown, Tyrone Williams
Engineer [Mastering] – Bob Carboni
Engineer [Recording], Engineer [Mixing] – Jack Rouben
Engineer [Technical] – Barry Steinpress
Guitar – Emzie Parker III, Glenn Nightingale, James Macon
Horns – Bernard Baisden, Fernando Harkless
Horns, Arranged By [Horns], Backing Vocals – Malvin 'Dino' Vice
Horns, Backing Vocals – Gussie Scott
Keyboards – John Black (4), Louie Cabaza
Keyboards, Percussion, Synthesizer [Mixing] – Greg Phillinganes (tracks: 1,2)
Lead Vocals – Robert Wilson (tracks:1)
Lead Vocals, Backing Vocals, Keyboards, Synthesizer, Percussion – Charlie Wilson
Photography By – Tom Gibson
Producer – Lonnie Simmons
Trumpet, Keyboards, Backing Vocals – Ronnie Wilson
Written-By – Johnsye Smith (tracks: 2), Charles Wilson, Lonnie Simmons, Malvin 'Dino' Vice (tracks:4), Robert Wilson, Ronnie Wilson, Rudolph Taylor
Приватный:
Нет (DHT включён)
Размер:
301.23 Мб (315,866,393 байт) » файлов: 26
Участники:
0 раздают, 0 качают (0 участников всего)
Внешние участники:
3 раздают, 1 качают (4 участников всего) [ Обновить ]
Скорость:
121.82 Кб/c 0/c
No seeders - write a personal message to user M0p94ok. Нет сидеров - пишите личное сообщение пользователю M0p94ok.
08:30
112
Нет комментариев. Ваш будет первым!