Поиск

(Funk, Soul) [CD] Isaac Hayes - Hotbed - 1978, FLAC (tracks+.cue), lossless

(Funk, Soul) [CD] Isaac Hayes - Hotbed - 1978, FLAC (tracks+.cue), lossless
Треклист:
Isaac Hayes - Hotbed
Жанр: Funk, Soul
Носитель: CD
Год издания: 1978
Издатель (лейбл): Stax Records
Номер по каталогу: CDSXE 105
Аудиокодек: FLAC (*.flac)
Тип рипа: tracks+.cue
Битрейт аудио: lossless
Продолжительность: 34:24
Rip by JET 1
Наличие сканов в содержимом раздачи: да
Треклист:
01. Use Me (5:55)
02. I'm Gonna Have To Tell Her (4:13)
03. The Ten Commandments Of Love (6:02)
04. Feel Like Makin' Love (13:37)
05. Hobosac And Me (4:37)
 
 
Лог создания рипа
Exact Audio Copy V1.0 beta 3 from 29. August 2011
EAC extraction logfile from 30. October 2015, 22:28
Isaac Hayes / Hotbed
Used drive : GENERIC CDRCB05 Adapter: 4 ID: 0
Read mode : Secure
Utilize accurate stream : Yes
Defeat audio cache : Yes
Make use of C2 pointers : No
Read offset correction : 102
Overread into Lead-In and Lead-Out : No
Fill up missing offset samples with silence : Yes
Delete leading and trailing silent blocks : No
Null samples used in CRC calculations : Yes
Used interface : Native Win32 interface for Win NT & 2000
Gap handling : Appended to previous track
Used output format : User Defined Encoder
Selected bitrate : 1024 kBit/s
Quality : High
Add ID3 tag : No
Command line compressor : C:\Program Files\FLAC\flac.exe
Additional command line options : -8 -V -T "ARTIST=%artist%" -T "TITLE=%title%" -T "ALBUM=%albumtitle%" -T "DATE=%year%" -T "TRACKNUMBER=%tracknr%" -T "GENRE=%genre%" -T "PERFORMER=%albuminterpret%" -T "COMPOSER=%composer%" %haslyrics%--tag-from-file=LYRICS="%lyricsfile%"%haslyrics% -T "ALBUMARTIST=%albumartist%" -T "DISCNUMBER=%cdnumber%" -T "TOTALDISCS=%totalcds%" -T "TOTALTRACKS=%numtracks%" -T "COMMENT=%comment%" %source% -o %dest%
TOC of the extracted CD
Track | Start | Length | Start sector | End sector
---------------------------------------------------------
1 | 0:00.00 | 5:55.32 | 0 | 26656
2 | 5:55.32 | 4:12.70 | 26657 | 45626
3 | 10:08.27 | 6:01.40 | 45627 | 72741
4 | 16:09.67 | 13:37.35 | 72742 | 134051
5 | 29:47.27 | 4:36.65 | 134052 | 154816
Track 1
Filename G:\POSTS\WAV\Isaac Hayes • Hotbed (1978)\01 - Use Me.wav
Pre-gap length 0:00:02.00
Peak level 100.0 %
Extraction speed 1.5 X
Track quality 100.0 %
Test CRC EE9DEC3C
Copy CRC EE9DEC3C
Accurately ripped (confidence 3) [2C7F09E7] (AR v2)
Copy OK
Track 2
Filename G:\POSTS\WAV\Isaac Hayes • Hotbed (1978)\02 - I'm Gonna Have To Tell Her.wav
Pre-gap length 0:00:05.27
Peak level 99.0 %
Extraction speed 1.5 X
Track quality 99.9 %
Test CRC 4BD63A52
Copy CRC 4BD63A52
Accurately ripped (confidence 3) [8123E5A5] (AR v2)
Copy OK
Track 3
Filename G:\POSTS\WAV\Isaac Hayes • Hotbed (1978)\03 - The Ten Commandments Of Love.wav
Pre-gap length 0:00:04.47
Peak level 100.0 %
Extraction speed 1.7 X
Track quality 99.9 %
Test CRC 0F299A37
Copy CRC 0F299A37
Accurately ripped (confidence 3) [B038FB0B] (AR v2)
Copy OK
Track 4
Filename G:\POSTS\WAV\Isaac Hayes • Hotbed (1978)\04 - Feel Like Makin' Love.wav
Pre-gap length 0:00:03.05
Peak level 98.3 %
Extraction speed 2.3 X
Track quality 100.0 %
Test CRC 5907F4E8
Copy CRC 5907F4E8
Accurately ripped (confidence 3) [C0FC64B4] (AR v2)
Copy OK
Track 5
Filename G:\POSTS\WAV\Isaac Hayes • Hotbed (1978)\05 - Hobosac And Me.wav
Pre-gap length 0:00:05.15
Peak level 95.8 %
Extraction speed 2.1 X
Track quality 99.9 %
Test CRC 38DA3A1A
Copy CRC 38DA3A1A
Accurately ripped (confidence 3) [45499309] (AR v2)
Copy OK
All tracks accurately ripped
No errors occurred
End of status report
==== Log checksum 2018F78BFF6F9DC36FCBD22A011A9B662EF297E3D484D7A256F3D3B22E574A28 ====
 
Содержание индексной карты (.CUE)
REM GENRE Soul
REM DATE 1978
REM DISCID 42081005
REM COMMENT "ExactAudioCopy v1.0b3"
PERFORMER "Isaac Hayes"
TITLE "Hotbed"
FILE "01 - Use Me.wav" WAVE
TRACK 01 AUDIO
TITLE "Use Me"
PERFORMER "Isaac Hayes"
INDEX 01 00:00:00
TRACK 02 AUDIO
TITLE "I'm Gonna Have To Tell Her"
PERFORMER "Isaac Hayes"
INDEX 00 05:50:05
FILE "02 - I'm Gonna Have To Tell Her.wav" WAVE
INDEX 01 00:00:00
TRACK 03 AUDIO
TITLE "The Ten Commandments Of Love"
PERFORMER "Isaac Hayes"
INDEX 00 04:08:23
FILE "03 - The Ten Commandments Of Love.wav" WAVE
INDEX 01 00:00:00
TRACK 04 AUDIO
TITLE "Feel Like Makin' Love"
PERFORMER "Isaac Hayes"
INDEX 00 05:58:35
FILE "04 - Feel Like Makin' Love.wav" WAVE
INDEX 01 00:00:00
TRACK 05 AUDIO
TITLE "Hobosac And Me"
PERFORMER "Isaac Hayes"
INDEX 00 13:32:20
FILE "05 - Hobosac And Me.wav" WAVE
INDEX 01 00:00:00
 
Состав
Bass – Erroll Thomas, William Murphy
Congas – Jimmy Lee Thompson
Drums – Willie Hall
Guitar – Charles "Skip" Pitts, Sammy Watts
Horns – The Memphis Horns
Keyboards – Sidney Kirk
Percussion – Gary Jones (3), Willie Cole
Producer – Isaac Hayes
Приватный:
Нет (DHT включён)
Размер:
257.97 Мб (270,504,477 байт) » файлов: 14
Участники:
0 раздают, 0 качают (0 участников всего)
Внешние участники:
3 раздают, 1 качают (4 участников всего) [ Обновить ]
Есть вопросы - пишите личное сообщение пользователю M0p94ok.
08:29
102
Нет комментариев. Ваш будет первым!