Поиск

(Funk, Soul) [CD] Nik West - Just In The Nik Of Time - 2013, FLAC (tracks+.cue), lossless

(Funk, Soul) [CD] Nik West - Just In The Nik Of Time - 2013, FLAC (tracks+.cue), lossless
Треклист:
Nik West - Just In The Nik Of Time
Жанр: Funk, Soul
Носитель: CD
Год издания: 2013
Издатель (лейбл): Sweet Soul Records
Номер по каталогу: SSRI-0056
Аудиокодек: FLAC (*.flac)
Тип рипа: tracks+.cue
Битрейт аудио: lossless
Продолжительность: 50:41
Rip by JET 1
Наличие сканов в содержимом раздачи: да
Треклист:
01. Wait A Minute (2:30)
02. Forbidden Fruit (5:18)
03. Do What You Gotta Do (4:19)
04. Who's In The Mirror (3:54)
05. Eyes Closed (2:46)
06. Just In The Nik Of Time (1:16)
07. Written All Over Me (4:17)
08. Black Beauty (4:23)
09. Be Okay (4:11)
10. Never Forget To Love (3:44)
11. Black Beauty (Live) (5:42)
12. Forbidden Fruit (Live) (4:58)
13. Superwoman (live) (3:23)
 
 
Лог создания рипа
Exact Audio Copy V1.0 beta 3 from 29. August 2011
EAC extraction logfile from 20. October 2015, 21:51
Nik West / Just In The Nik Of Time
Used drive : GENERIC CDRCB05 Adapter: 4 ID: 0
Read mode : Secure
Utilize accurate stream : Yes
Defeat audio cache : Yes
Make use of C2 pointers : No
Read offset correction : 102
Overread into Lead-In and Lead-Out : No
Fill up missing offset samples with silence : Yes
Delete leading and trailing silent blocks : No
Null samples used in CRC calculations : Yes
Used interface : Native Win32 interface for Win NT & 2000
Gap handling : Appended to previous track
Used output format : User Defined Encoder
Selected bitrate : 1024 kBit/s
Quality : High
Add ID3 tag : No
Command line compressor : C:\Program Files\FLAC\flac.exe
Additional command line options : -8 -V -T "ARTIST=%artist%" -T "TITLE=%title%" -T "ALBUM=%albumtitle%" -T "DATE=%year%" -T "TRACKNUMBER=%tracknr%" -T "GENRE=%genre%" -T "PERFORMER=%albuminterpret%" -T "COMPOSER=%composer%" %haslyrics%--tag-from-file=LYRICS="%lyricsfile%"%haslyrics% -T "ALBUMARTIST=%albumartist%" -T "DISCNUMBER=%cdnumber%" -T "TOTALDISCS=%totalcds%" -T "TOTALTRACKS=%numtracks%" -T "COMMENT=%comment%" %source% -o %dest%
TOC of the extracted CD
Track | Start | Length | Start sector | End sector
---------------------------------------------------------
1 | 0:00.00 | 2:30.00 | 0 | 11249
2 | 2:30.00 | 5:18.00 | 11250 | 35099
3 | 7:48.00 | 4:18.45 | 35100 | 54494
4 | 12:06.45 | 3:53.39 | 54495 | 72008
5 | 16:00.09 | 2:46.16 | 72009 | 84474
6 | 18:46.25 | 1:16.18 | 84475 | 90192
7 | 20:02.43 | 4:16.72 | 90193 | 109464
8 | 24:19.40 | 4:22.44 | 109465 | 129158
9 | 28:42.09 | 4:11.19 | 129159 | 148002
10 | 32:53.28 | 3:44.09 | 148003 | 164811
11 | 36:37.37 | 5:42.36 | 164812 | 190497
12 | 42:19.73 | 4:57.54 | 190498 | 212826
13 | 47:17.52 | 3:22.69 | 212827 | 228045
Track 1
Filename G:\POSTS\Nik West - Just In The Nik Of Time (2013) [Japan]\01 - Wait A Minute.wav
Pre-gap length 0:00:02.00
Peak level 100.0 %
Extraction speed 2.2 X
Track quality 100.0 %
Test CRC FF3ECBC2
Copy CRC FF3ECBC2
Track not present in AccurateRip database
Copy OK
Track 2
Filename G:\POSTS\Nik West - Just In The Nik Of Time (2013) [Japan]\02 - Forbidden Fruit.wav
Pre-gap length 0:00:02.00
Peak level 97.7 %
Extraction speed 2.7 X
Track quality 100.0 %
Test CRC 7DC83B8C
Copy CRC 7DC83B8C
Track not present in AccurateRip database
Copy OK
Track 3
Filename G:\POSTS\Nik West - Just In The Nik Of Time (2013) [Japan]\03 - Do What You Gotta Do.wav
Pre-gap length 0:00:02.00
Peak level 97.7 %
Extraction speed 2.6 X
Track quality 99.9 %
Test CRC C2BB1A79
Copy CRC C2BB1A79
Track not present in AccurateRip database
Copy OK
Track 4
Filename G:\POSTS\Nik West - Just In The Nik Of Time (2013) [Japan]\04 - Who's In The Mirror.wav
Pre-gap length 0:00:02.00
Peak level 100.0 %
Extraction speed 3.1 X
Track quality 100.0 %
Test CRC 8D8DB2F4
Copy CRC 8D8DB2F4
Track not present in AccurateRip database
Copy OK
Track 5
Filename G:\POSTS\Nik West - Just In The Nik Of Time (2013) [Japan]\05 - Eyes Closed.wav
Pre-gap length 0:00:02.00
Peak level 97.7 %
Extraction speed 3.1 X
Track quality 100.0 %
Test CRC 5FC4D624
Copy CRC 5FC4D624
Track not present in AccurateRip database
Copy OK
Track 6
Filename G:\POSTS\Nik West - Just In The Nik Of Time (2013) [Japan]\06 - Just In The Nik Of Time.wav
Pre-gap length 0:00:02.00
Peak level 97.7 %
Extraction speed 2.4 X
Track quality 100.0 %
Test CRC DDF24B07
Copy CRC DDF24B07
Track not present in AccurateRip database
Copy OK
Track 7
Filename G:\POSTS\Nik West - Just In The Nik Of Time (2013) [Japan]\07 - Written All Over Me.wav
Pre-gap length 0:00:02.00
Peak level 97.7 %
Extraction speed 3.1 X
Track quality 99.9 %
Test CRC BF011568
Copy CRC BF011568
Track not present in AccurateRip database
Copy OK
Track 8
Filename G:\POSTS\Nik West - Just In The Nik Of Time (2013) [Japan]\08 - Black Beauty.wav
Pre-gap length 0:00:02.00
Peak level 98.9 %
Extraction speed 3.3 X
Track quality 99.9 %
Test CRC 7B54AC60
Copy CRC 7B54AC60
Track not present in AccurateRip database
Copy OK
Track 9
Filename G:\POSTS\Nik West - Just In The Nik Of Time (2013) [Japan]\09 - Be Okay.wav
Pre-gap length 0:00:02.00
Peak level 97.7 %
Extraction speed 3.9 X
Track quality 100.0 %
Test CRC E286EFC4
Copy CRC E286EFC4
Track not present in AccurateRip database
Copy OK
Track 10
Filename G:\POSTS\Nik West - Just In The Nik Of Time (2013) [Japan]\10 - Never Forget To Love.wav
Pre-gap length 0:00:02.00
Peak level 97.7 %
Extraction speed 3.5 X
Track quality 99.9 %
Test CRC 3AA5E080
Copy CRC 3AA5E080
Track not present in AccurateRip database
Copy OK
Track 11
Filename G:\POSTS\Nik West - Just In The Nik Of Time (2013) [Japan]\11 - Black Beauty (Live).wav
Pre-gap length 0:00:02.00
Peak level 100.0 %
Extraction speed 4.3 X
Track quality 100.0 %
Test CRC 90C3E7C7
Copy CRC 90C3E7C7
Track not present in AccurateRip database
Copy OK
Track 12
Filename G:\POSTS\Nik West - Just In The Nik Of Time (2013) [Japan]\12 - Forbidden Fruit (Live).wav
Pre-gap length 0:00:02.00
Peak level 100.0 %
Extraction speed 4.5 X
Track quality 100.0 %
Test CRC 12DDFDF4
Copy CRC 12DDFDF4
Track not present in AccurateRip database
Copy OK
Track 13
Filename G:\POSTS\Nik West - Just In The Nik Of Time (2013) [Japan]\13 - Suoerwoman (live).wav
Pre-gap length 0:00:02.00
Peak level 100.0 %
Extraction speed 4.4 X
Track quality 100.0 %
Test CRC D9DEB635
Copy CRC D9DEB635
Track not present in AccurateRip database
Copy OK
None of the tracks are present in the AccurateRip database
No errors occurred
End of status report
==== Log checksum 9FA49F89498E904F75911D624EB1407DF5CB533B9B10A9089CB24636062623CD ====
 
Содержание индексной карты (.CUE)
REM GENRE Jazz+Funk
REM DATE 2013
REM DISCID B10BE00D
REM COMMENT "ExactAudioCopy v1.0b3"
PERFORMER "Nik West"
TITLE "Just In The Nik Of Time"
FILE "01 - Wait A Minute.wav" WAVE
TRACK 01 AUDIO
TITLE "Wait A Minute"
PERFORMER "Nik West"
INDEX 01 00:00:00
TRACK 02 AUDIO
TITLE "Forbidden Fruit"
PERFORMER "Nik West"
INDEX 00 02:28:00
FILE "02 - Forbidden Fruit.wav" WAVE
INDEX 01 00:00:00
TRACK 03 AUDIO
TITLE "Do What You Gotta Do"
PERFORMER "Nik West"
INDEX 00 05:16:00
FILE "03 - Do What You Gotta Do.wav" WAVE
INDEX 01 00:00:00
TRACK 04 AUDIO
TITLE "Who's In The Mirror"
PERFORMER "Nik West"
INDEX 00 04:16:45
FILE "04 - Who's In The Mirror.wav" WAVE
INDEX 01 00:00:00
TRACK 05 AUDIO
TITLE "Eyes Closed"
PERFORMER "Nik West"
INDEX 00 03:51:39
FILE "05 - Eyes Closed.wav" WAVE
INDEX 01 00:00:00
TRACK 06 AUDIO
TITLE "Just In The Nik Of Time"
PERFORMER "Nik West"
INDEX 00 02:44:16
FILE "06 - Just In The Nik Of Time.wav" WAVE
INDEX 01 00:00:00
TRACK 07 AUDIO
TITLE "Written All Over Me"
PERFORMER "Nik West"
INDEX 00 01:14:18
FILE "07 - Written All Over Me.wav" WAVE
INDEX 01 00:00:00
TRACK 08 AUDIO
TITLE "Black Beauty"
PERFORMER "Nik West"
INDEX 00 04:14:72
FILE "08 - Black Beauty.wav" WAVE
INDEX 01 00:00:00
TRACK 09 AUDIO
TITLE "Be Okay"
PERFORMER "Nik West"
INDEX 00 04:20:44
FILE "09 - Be Okay.wav" WAVE
INDEX 01 00:00:00
TRACK 10 AUDIO
TITLE "Never Forget To Love"
PERFORMER "Nik West"
INDEX 00 04:09:19
FILE "10 - Never Forget To Love.wav" WAVE
INDEX 01 00:00:00
TRACK 11 AUDIO
TITLE "Black Beauty (Live)"
PERFORMER "Nik West"
INDEX 00 03:42:09
FILE "11 - Black Beauty (Live).wav" WAVE
INDEX 01 00:00:00
TRACK 12 AUDIO
TITLE "Forbidden Fruit (Live)"
PERFORMER "Nik West"
INDEX 00 05:40:36
FILE "12 - Forbidden Fruit (Live).wav" WAVE
INDEX 01 00:00:00
TRACK 13 AUDIO
TITLE "Superwoman (live)"
PERFORMER "Nik West"
INDEX 00 04:55:54
FILE "13 - Superwoman (live).wav" WAVE
INDEX 01 00:00:00
Приватный:
Нет (DHT включён)
Размер:
365.56 Мб (383,320,108 байт) » файлов: 30
Участники:
0 раздают, 0 качают (0 участников всего)
Внешние участники:
5 раздают, 1 качают (6 участников всего) [ Обновить ]
No seeders - write a personal message to user M0p94ok. Нет сидеров - пишите личное сообщение пользователю M0p94ok.
08:27
85
Нет комментариев. Ваш будет первым!