Поиск

(Funk, Soul) [CD] Love Unlimited - In Heat (1974) - 2003, FLAC (tracks+.cue), lossless

(Funk, Soul) [CD] Love Unlimited - In Heat (1974) - 2003, FLAC (tracks+.cue), lossless
Треклист:
Love Unlimited - In Heat (1974)
Жанр: Funk, Soul
Носитель: CD
Год издания: 2003
Издатель (лейбл): 20th Century Records
Номер по каталогу: 063 625-2
Аудиокодек: FLAC (*.flac)
Тип рипа: tracks+.cue
Битрейт аудио: lossless
Продолжительность: 29:42
Rip by JET 1
Наличие сканов в содержимом раздачи: да
Треклист:
01. Move Me No Mountain (3:58)
02. Share A Little Love In Your Heart (5:54)
03. Oh I Should Say, It's Such A Beautiful Day (3:33)
04. I Needed Love - You Were There (3:49)
05. I Belong To You (5:08)
06. I Love You So, Never Gonna Let You Go (3:21)
07. Love's Theme (3:59)
 
 
Лог создания рипа
Exact Audio Copy V1.0 beta 3 from 29. August 2011
EAC extraction logfile from 16. October 2015, 22:06
Love Unlimited / In Heat
Used drive : GENERIC CDRCB05 Adapter: 4 ID: 0
Read mode : Secure
Utilize accurate stream : Yes
Defeat audio cache : Yes
Make use of C2 pointers : No
Read offset correction : 102
Overread into Lead-In and Lead-Out : No
Fill up missing offset samples with silence : Yes
Delete leading and trailing silent blocks : No
Null samples used in CRC calculations : Yes
Used interface : Native Win32 interface for Win NT & 2000
Gap handling : Appended to previous track
Used output format : User Defined Encoder
Selected bitrate : 1024 kBit/s
Quality : High
Add ID3 tag : No
Command line compressor : C:\Program Files\FLAC\flac.exe
Additional command line options : -8 -V -T "ARTIST=%artist%" -T "TITLE=%title%" -T "ALBUM=%albumtitle%" -T "DATE=%year%" -T "TRACKNUMBER=%tracknr%" -T "GENRE=%genre%" -T "PERFORMER=%albuminterpret%" -T "COMPOSER=%composer%" %haslyrics%--tag-from-file=LYRICS="%lyricsfile%"%haslyrics% -T "ALBUMARTIST=%albumartist%" -T "DISCNUMBER=%cdnumber%" -T "TOTALDISCS=%totalcds%" -T "TOTALTRACKS=%numtracks%" -T "COMMENT=%comment%" %source% -o %dest%
TOC of the extracted CD
Track | Start | Length | Start sector | End sector
---------------------------------------------------------
1 | 0:00.00 | 3:57.43 | 0 | 17817
2 | 3:57.43 | 5:54.05 | 17818 | 44372
3 | 9:51.48 | 3:32.70 | 44373 | 60342
4 | 13:24.43 | 3:48.69 | 60343 | 77511
5 | 17:13.37 | 5:08.33 | 77512 | 100644
6 | 22:21.70 | 3:21.13 | 100645 | 115732
7 | 25:43.08 | 3:59.13 | 115733 | 133670
Track 1
Filename G:\POSTS\Love Unlimited - In Heat (1974) [2003 Original Funk LP Series]\01 - Move Me No Mountain.wav
Pre-gap length 0:00:02.00
Peak level 100.0 %
Extraction speed 2.4 X
Track quality 100.0 %
Test CRC 13676E58
Copy CRC 13676E58
Accurately ripped (confidence 4) [16995A33] (AR v2)
Copy OK
Track 2
Filename G:\POSTS\Love Unlimited - In Heat (1974) [2003 Original Funk LP Series]\02 - Share A Little Love In Your Heart.wav
Pre-gap length 0:00:02.18
Peak level 100.0 %
Extraction speed 2.8 X
Track quality 100.0 %
Test CRC 660B4361
Copy CRC 660B4361
Accurately ripped (confidence 4) [19AF1B82] (AR v2)
Copy OK
Track 3
Filename G:\POSTS\Love Unlimited - In Heat (1974) [2003 Original Funk LP Series]\03 - Oh I Should Say, It's Such A Beautiful Day.wav
Pre-gap length 0:00:00.69
Peak level 100.0 %
Extraction speed 2.9 X
Track quality 100.0 %
Test CRC 4082272A
Copy CRC 4082272A
Accurately ripped (confidence 4) [9C54B441] (AR v2)
Copy OK
Track 4
Filename G:\POSTS\Love Unlimited - In Heat (1974) [2003 Original Funk LP Series]\04 - I Needed Love - You Were There.wav
Pre-gap length 0:00:02.12
Peak level 100.0 %
Extraction speed 3.1 X
Track quality 100.0 %
Test CRC FAB6A57A
Copy CRC FAB6A57A
Accurately ripped (confidence 4) [1F59D8F2] (AR v2)
Copy OK
Track 5
Filename G:\POSTS\Love Unlimited - In Heat (1974) [2003 Original Funk LP Series]\05 - I Belong To You.wav
Pre-gap length 0:00:01.19
Peak level 100.0 %
Extraction speed 3.0 X
Track quality 99.9 %
Test CRC 7B7FC431
Copy CRC 7B7FC431
Accurately ripped (confidence 4) [42CCA1FF] (AR v2)
Copy OK
Track 6
Filename G:\POSTS\Love Unlimited - In Heat (1974) [2003 Original Funk LP Series]\06 - I Love You So, Never Gonna Let You Go.wav
Pre-gap length 0:00:00.66
Peak level 100.0 %
Extraction speed 3.0 X
Track quality 99.9 %
Test CRC CADB6AE1
Copy CRC CADB6AE1
Accurately ripped (confidence 4) [DD7C3240] (AR v2)
Copy OK
Track 7
Filename G:\POSTS\Love Unlimited - In Heat (1974) [2003 Original Funk LP Series]\07 - Love's Theme.wav
Pre-gap length 0:00:00.65
Peak level 100.0 %
Extraction speed 3.7 X
Track quality 100.0 %
Test CRC AF837986
Copy CRC AF837986
Accurately ripped (confidence 4) [32B320A3] (AR v2)
Copy OK
All tracks accurately ripped
No errors occurred
End of status report
==== Log checksum 4A87CA492D6C0BE346AE8BA630F0ADA8B648FB4A2F7F1F510113E07D711BC88A ====
 
Содержание индексной карты (.CUE)
REM GENRE Funk
REM DATE 1974
REM DISCID 5206F607
REM COMMENT "ExactAudioCopy v1.0b3"
PERFORMER "Love Unlimited"
TITLE "In Heat"
FILE "01 - Move Me No Mountain.wav" WAVE
TRACK 01 AUDIO
TITLE "Move Me No Mountain"
PERFORMER "Love Unlimited"
INDEX 01 00:00:00
TRACK 02 AUDIO
TITLE "Share A Little Love In Your Heart"
PERFORMER "Love Unlimited"
INDEX 00 03:55:25
FILE "02 - Share A Little Love In Your Heart.wav" WAVE
INDEX 01 00:00:00
TRACK 03 AUDIO
TITLE "Oh I Should Say, It's Such A Beautiful Day"
PERFORMER "Love Unlimited"
INDEX 00 05:53:11
FILE "03 - Oh I Should Say, It's Such A Beautiful Day.wav" WAVE
INDEX 01 00:00:00
TRACK 04 AUDIO
TITLE "I Needed Love - You Were There"
PERFORMER "Love Unlimited"
INDEX 00 03:30:58
FILE "04 - I Needed Love - You Were There.wav" WAVE
INDEX 01 00:00:00
TRACK 05 AUDIO
TITLE "I Belong To You"
PERFORMER "Love Unlimited"
INDEX 00 03:47:50
FILE "05 - I Belong To You.wav" WAVE
INDEX 01 00:00:00
TRACK 06 AUDIO
TITLE "I Love You So, Never Gonna Let You Go"
PERFORMER "Love Unlimited"
INDEX 00 05:07:42
FILE "06 - I Love You So, Never Gonna Let You Go.wav" WAVE
INDEX 01 00:00:00
TRACK 07 AUDIO
TITLE "Love's Theme"
PERFORMER "Love Unlimited"
INDEX 00 03:20:23
FILE "07 - Love's Theme.wav" WAVE
INDEX 01 00:00:00
Приватный:
Нет (DHT включён)
Размер:
272.14 Мб (285,357,426 байт) » файлов: 22
Участники:
0 раздают, 0 качают (0 участников всего)
Внешние участники:
5 раздают, 1 качают (6 участников всего) [ Обновить ]
Есть вопросы - пишите личное сообщение пользователю M0p94ok.
08:27
91
Нет комментариев. Ваш будет первым!