Поиск

(Funk, Soul, R&B) [CD] Randy Crawford - Secret Combination (1981) - 2015 {WPCR-28100}, FLAC (tracks+.cue), lossless

(Funk, Soul, R&B) [CD] Randy Crawford - Secret Combination (1981) - 2015 {WPCR-28100}, FLAC (tracks+.cue), lossless
Треклист:
Randy Crawford - Secret Combination (1981) Жанр: Funk, Soul, R&B
Носитель: CD
Страна-производитель диска (релиза): Japan
Год издания: 2015
Издатель (лейбл): Warner Music Japan
Номер по каталогу: WPCR-28100
Аудиокодек: FLAC (*.flac)
Тип рипа: tracks+.cue
Битрейт аудио: lossless
Продолжительность: 39:29
Источник (релизер): What.cd (coron)
Наличие сканов в содержимом раздачи: сетевые от другого издания
Треклист:
01. You Might Need Somebody (4:19)
02. Rainy Night In Georgia (4:22)
03. That's How Heartaches Are Made (2:57)
04. Two Lives (3:47)
05. You Bring The Sun Out (3:24)
06. Rio De Janeiro Blue (4:18)
07. Secret Combination (3:24)
08. When I Lose My Way (3:44)
09. Time For Love (4:16)
10. Trade Winds (4:57)
 
 
Лог создания рипа
Exact Audio Copy V1.0 beta 3 from 29. August 2011
EAC extraction logfile from 29. August 2015, 4:18
Randy Crawford / Secret Combination (2015 Remastered)
Used drive : PIONEER BD-RW BDR-XD05 Adapter: 2 ID: 0
Read mode : Secure
Utilize accurate stream : Yes
Defeat audio cache : Yes
Make use of C2 pointers : No
Read offset correction : 667
Overread into Lead-In and Lead-Out : No
Fill up missing offset samples with silence : Yes
Delete leading and trailing silent blocks : No
Null samples used in CRC calculations : Yes
Used interface : Native Win32 interface for Win NT & 2000
Gap handling : Appended to previous track
Used output format : User Defined Encoder
Selected bitrate : 1024 kBit/s
Quality : High
Add ID3 tag : No
Command line compressor : C:\Program Files (x86)\Exact Audio Copy\Flac\flac.exe
Additional command line options : -8 -V -T "ARTIST=%artist%" -T "TITLE=%title%" -T "ALBUM=%albumtitle%" -T "DATE=%year%" -T "TRACKNUMBER=%tracknr%" -T "GENRE=%genre%" -T "PERFORMER=%albuminterpret%" -T "COMPOSER=%composer%" %haslyrics%--tag-from-file=LYRICS="%lyricsfile%"%haslyrics% -T "ALBUMARTIST=%albumartist%" -T "DISCNUMBER=%cdnumber%" -T "TOTALDISCS=%totalcds%" -T "TOTALTRACKS=%numtracks%" -T "COMMENT=%comment%" %source% -o %dest%
TOC of the extracted CD
Track | Start | Length | Start sector | End sector
---------------------------------------------------------
1 | 0:00.00 | 4:19.31 | 0 | 19455
2 | 4:19.31 | 4:22.31 | 19456 | 39136
3 | 8:41.62 | 2:57.02 | 39137 | 52413
4 | 11:38.64 | 3:47.27 | 52414 | 69465
5 | 15:26.16 | 3:24.00 | 69466 | 84765
6 | 18:50.16 | 4:18.03 | 84766 | 104118
7 | 23:08.19 | 3:24.09 | 104119 | 119427
8 | 26:32.28 | 3:44.03 | 119428 | 136230
9 | 30:16.31 | 4:15.54 | 136231 | 155409
10 | 34:32.10 | 4:56.65 | 155410 | 177674
Track 1
Filename C:\EACRips\01 You Might Need Somebody.wav
Pre-gap length 0:00:02.00
Peak level 100.0 %
Extraction speed 2.8 X
Track quality 100.0 %
Test CRC 3456B4F9
Copy CRC 3456B4F9
Accurately ripped (confidence 2) [1FE23315] (AR v2)
Copy OK
Track 2
Filename C:\EACRips\02 Rainy Night In Georgia.wav
Pre-gap length 0:00:00.85
Peak level 100.0 %
Extraction speed 3.2 X
Track quality 100.0 %
Test CRC 5ABECB5D
Copy CRC 5ABECB5D
Accurately ripped (confidence 2) [4D466A8D] (AR v2)
Copy OK
Track 3
Filename C:\EACRips\03 That´s How Heartaches Are Made.wav
Pre-gap length 0:00:01.01
Peak level 100.0 %
Extraction speed 3.2 X
Track quality 100.0 %
Test CRC AD3A7DD4
Copy CRC AD3A7DD4
Accurately ripped (confidence 2) [C453C839] (AR v2)
Copy OK
Track 4
Filename C:\EACRips\04 Two Lives.wav
Pre-gap length 0:00:01.41
Peak level 100.0 %
Extraction speed 3.5 X
Track quality 100.0 %
Test CRC 50D83088
Copy CRC 50D83088
Accurately ripped (confidence 2) [39B8A0C1] (AR v2)
Copy OK
Track 5
Filename C:\EACRips\05 You Bring The Sun Out.wav
Pre-gap length 0:00:01.18
Peak level 100.0 %
Extraction speed 3.7 X
Track quality 100.0 %
Test CRC 8113A13C
Copy CRC 8113A13C
Accurately ripped (confidence 2) [719C3024] (AR v2)
Copy OK
Track 6
Filename C:\EACRips\06 Rio De Janeiro Blue.wav
Pre-gap length 0:00:00.17
Peak level 100.0 %
Extraction speed 4.0 X
Track quality 100.0 %
Test CRC 3AE30872
Copy CRC 3AE30872
Accurately ripped (confidence 2) [7CE284EA] (AR v2)
Copy OK
Track 7
Filename C:\EACRips\07 Secret Combination.wav
Pre-gap length 0:00:01.93
Peak level 100.0 %
Extraction speed 4.0 X
Track quality 100.0 %
Test CRC F6882D29
Copy CRC F6882D29
Accurately ripped (confidence 2) [98AFB9BD] (AR v2)
Copy OK
Track 8
Filename C:\EACRips\08 When I Lose My Way.wav
Pre-gap length 0:00:00.24
Peak level 100.0 %
Extraction speed 4.2 X
Track quality 100.0 %
Test CRC B1708DDD
Copy CRC B1708DDD
Accurately ripped (confidence 2) [6E71C65F] (AR v2)
Copy OK
Track 9
Filename C:\EACRips\09 Time For Love.wav
Pre-gap length 0:00:00.72
Peak level 100.0 %
Extraction speed 4.5 X
Track quality 100.0 %
Test CRC C3E8A6BE
Copy CRC C3E8A6BE
Accurately ripped (confidence 2) [5777F2CE] (AR v2)
Copy OK
Track 10
Filename C:\EACRips\10 Trade Winds.wav
Pre-gap length 0:00:01.76
Peak level 100.0 %
Extraction speed 4.7 X
Track quality 100.0 %
Test CRC EA539A27
Copy CRC EA539A27
Accurately ripped (confidence 2) [EB7FFFF0] (AR v2)
Copy OK
All tracks accurately ripped
No errors occurred
End of status report
---- CUETools DB Plugin V2.1.3
[CTDB TOCID: lTgYwT2oXg_2Fpq.KtjOQMSEaTQ-] found, Submit result: lTgYwT2oXg_2Fpq.KtjOQMSEaTQ- has been confirmed
[265dc5c1] (3/3) Accurately ripped
==== Log checksum 7F983AB79A1EA4F34A7D85C2CE7542DF8FDA17157AD2046126AC2BEEAD459E06 ====
 
Содержание индексной карты (.CUE)
REM GENRE Soul
REM DATE 1981
REM DISCID 7509410A
REM COMMENT "ExactAudioCopy v1.0b3"
CATALOG 4943674180868
PERFORMER "Randy Crawford"
TITLE "Secret Combination"
FILE "01. You Might Need Somebody.flac" WAVE
TRACK 01 AUDIO
TITLE "You Might Need Somebody"
PERFORMER "Randy Crawford"
INDEX 01 00:00:00
TRACK 02 AUDIO
TITLE "Rainy Night In Georgia"
PERFORMER "Randy Crawford"
INDEX 00 04:18:42
FILE "02. Rainy Night In Georgia.flac" WAVE
INDEX 01 00:00:00
TRACK 03 AUDIO
TITLE "That's How Heartaches Are Made"
PERFORMER "Randy Crawford"
INDEX 00 04:21:30
FILE "03. That's How Heartaches Are Made.flac" WAVE
INDEX 01 00:00:00
TRACK 04 AUDIO
TITLE "Two Lives"
PERFORMER "Randy Crawford"
INDEX 00 02:55:46
FILE "04. Two Lives.flac" WAVE
INDEX 01 00:00:00
TRACK 05 AUDIO
TITLE "You Bring The Sun Out"
PERFORMER "Randy Crawford"
INDEX 00 03:46:13
FILE "05. You Bring The Sun Out.flac" WAVE
INDEX 01 00:00:00
TRACK 06 AUDIO
TITLE "Rio De Janeiro Blue"
PERFORMER "Randy Crawford"
INDEX 00 03:23:62
FILE "06. Rio De Janeiro Blue.flac" WAVE
INDEX 01 00:00:00
TRACK 07 AUDIO
TITLE "Secret Combination"
PERFORMER "Randy Crawford"
INDEX 00 04:16:08
FILE "07. Secret Combination.flac" WAVE
INDEX 01 00:00:00
TRACK 08 AUDIO
TITLE "When I Lose My Way"
PERFORMER "Randy Crawford"
INDEX 00 03:23:66
FILE "08. When I Lose My Way.flac" WAVE
INDEX 01 00:00:00
TRACK 09 AUDIO
TITLE "Time For Love"
PERFORMER "Randy Crawford"
INDEX 00 03:43:24
FILE "09. Time For Love.flac" WAVE
INDEX 01 00:00:00
TRACK 10 AUDIO
TITLE "Trade Winds"
PERFORMER "Randy Crawford"
INDEX 00 04:13:72
FILE "10. Trade Winds.flac" WAVE
INDEX 01 00:00:00
Приватный:
Нет (DHT включён)
Размер:
242.16 Мб (253,925,927 байт) » файлов: 25
Участники:
0 раздают, 0 качают (0 участников всего)
Внешние участники:
2 раздают, 1 качают (3 участников всего) [ Обновить ]
No seeders - write a personal message to user M0p94ok. Нет сидеров - пишите личное сообщение пользователю M0p94ok.
08:31
100
Нет комментариев. Ваш будет первым!