Поиск

(Funk, Soul, R&B) [CD] Randy Crawford - The Collection - 1990, FLAC (tracks+.cue), lossless

(Funk, Soul, R&B) [CD] Randy Crawford - The Collection - 1990, FLAC (tracks+.cue), lossless
Треклист:
Randy Crawford - The Collection Жанр: Funk, Soul, R&B
Носитель: CD
Год издания: 1990
Издатель (лейбл): Warner Bros.
Номер по каталогу: 9548-30200-2
Аудиокодек: FLAC (*.flac)
Тип рипа: tracks+.cue
Битрейт аудио: lossless
Продолжительность: 67:47
Источник (релизер): What.cd (yourservice)
Наличие сканов в содержимом раздачи: front, back
Треклист:
01. Knockin' On Heavens Door (4:52)
02. One Day I'll Fly Away (4:21)
03. Rainy Night In Georgia (4:14)
04. Windsong (3:27)
05. You Might Need Somebody (4:18)
06. Secret Combination (3:20)
07. Tender Falls The Rain (3:58)
08. This 'Ole Heart Of Mine (3:52)
09. Imagine (4:30)
10. One Hello (3:13)
11. Nightline (3:45)
12. Almaz (4:06)
13. Why (3:30)
14. I've Never Been To Me (3:35)
15. Trade Winds (4:55)
16. Same Old Story (4:05)
17. Everybody Needs A Little Rain (feat. Gerard Joling) (3:47)
 
 
Лог создания рипа
Exact Audio Copy V0.99 prebeta 5 from 4. May 2009
EAC extraction logfile from 21. June 2011, 19:52
Randy Crawford / The Collection
Used drive : LITE-ON CD-RW SOHR-5238S Adapter: 1 ID: 0
Read mode : Secure
Utilize accurate stream : Yes
Defeat audio cache : Yes
Make use of C2 pointers : No
Read offset correction : 6
Overread into Lead-In and Lead-Out : No
Fill up missing offset samples with silence : Yes
Delete leading and trailing silent blocks : No
Null samples used in CRC calculations : Yes
Used interface : Native Win32 interface for Win NT & 2000
Gap handling : Appended to previous track
Used output format : User Defined Encoder
Selected bitrate : 320 kBit/s
Quality : High
Add ID3 tag : No
Command line compressor : C:\Program Files\Exact Audio Copy\FLAC\FLAC.EXE
Additional command line options : -5 -V -T "ARTIST=%a" -T "TITLE=%t" -T "ALBUM=%g" -T "DATE=%y" -T "TRACKNUMBER=%n" -T "GENRE=%m" -T "COMMENT=%e" %s -o %d
TOC of the extracted CD
Track | Start | Length | Start sector | End sector
---------------------------------------------------------
1 | 0:00.00 | 4:51.65 | 0 | 21889
2 | 4:51.65 | 4:20.48 | 21890 | 41437
3 | 9:12.38 | 4:13.42 | 41438 | 60454
4 | 13:26.05 | 3:27.23 | 60455 | 76002
5 | 16:53.28 | 4:17.67 | 76003 | 95344
6 | 21:11.20 | 3:20.33 | 95345 | 110377
7 | 24:31.53 | 3:57.45 | 110378 | 128197
8 | 28:29.23 | 3:51.52 | 128198 | 145574
9 | 32:21.00 | 4:29.48 | 145575 | 165797
10 | 36:50.48 | 3:12.42 | 165798 | 180239
11 | 40:03.15 | 3:45.23 | 180240 | 197137
12 | 43:48.38 | 4:06.25 | 197138 | 215612
13 | 47:54.63 | 3:30.17 | 215613 | 231379
14 | 51:25.05 | 3:34.60 | 231380 | 247489
15 | 54:59.65 | 4:55.00 | 247490 | 269614
16 | 59:54.65 | 4:05.30 | 269615 | 288019
17 | 64:00.20 | 3:46.43 | 288020 | 305012
Track 1
Filename D:\Klaar\Randy Crawford - The Collection 1990 Flac\01 - Knockin' On Heavens Door.wav
Pre-gap length 0:00:02.00
Peak level 100.0 %
Track quality 99.9 %
Test CRC D4FD1C19
Copy CRC D4FD1C19
Accurately ripped (confidence 21) [70692D95]
Copy OK
Track 2
Filename D:\Klaar\Randy Crawford - The Collection 1990 Flac\02 - One Day I'll Fly Away.wav
Pre-gap length 0:00:00.72
Peak level 90.3 %
Track quality 99.9 %
Test CRC F927F57B
Copy CRC F927F57B
Accurately ripped (confidence 21) [731C726F]
Copy OK
Track 3
Filename D:\Klaar\Randy Crawford - The Collection 1990 Flac\03 - Rainy Night In Georgia.wav
Pre-gap length 0:00:01.00
Peak level 87.3 %
Track quality 100.0 %
Test CRC CE1A6E13
Copy CRC CE1A6E13
Accurately ripped (confidence 21) [8DBF9FC7]
Copy OK
Track 4
Filename D:\Klaar\Randy Crawford - The Collection 1990 Flac\04 - Windsong.wav
Pre-gap length 0:00:01.55
Peak level 86.1 %
Track quality 100.0 %
Test CRC 65841792
Copy CRC 65841792
Accurately ripped (confidence 21) [90F0312E]
Copy OK
Track 5
Filename D:\Klaar\Randy Crawford - The Collection 1990 Flac\05 - You Might Need Somebody.wav
Pre-gap length 0:00:00.48
Peak level 93.5 %
Track quality 100.0 %
Test CRC 3403CDF0
Copy CRC 3403CDF0
Accurately ripped (confidence 21) [2FD2C326]
Copy OK
Track 6
Filename D:\Klaar\Randy Crawford - The Collection 1990 Flac\06 - Secret Combination.wav
Pre-gap length 0:00:00.52
Peak level 99.1 %
Track quality 100.0 %
Test CRC 4E4717F2
Copy CRC 4E4717F2
Accurately ripped (confidence 21) [604120D3]
Copy OK
Track 7
Filename D:\Klaar\Randy Crawford - The Collection 1990 Flac\07 - Tender Falls The Rain.wav
Pre-gap length 0:00:00.20
Peak level 83.2 %
Track quality 100.0 %
Test CRC 25EC60CA
Copy CRC 25EC60CA
Accurately ripped (confidence 21) [CEE6EE86]
Copy OK
Track 8
Filename D:\Klaar\Randy Crawford - The Collection 1990 Flac\08 - This 'Ole Heart Of Mine.wav
Pre-gap length 0:00:00.68
Peak level 93.7 %
Track quality 100.0 %
Test CRC BEF13B7D
Copy CRC BEF13B7D
Accurately ripped (confidence 20) [94499944]
Copy OK
Track 9
Filename D:\Klaar\Randy Crawford - The Collection 1990 Flac\09 - Imagine.wav
Pre-gap length 0:00:00.05
Peak level 91.3 %
Track quality 99.9 %
Test CRC 0925DD9E
Copy CRC 0925DD9E
Accurately ripped (confidence 21) [8935536D]
Copy OK
Track 10
Filename D:\Klaar\Randy Crawford - The Collection 1990 Flac\10 - One Hello.wav
Pre-gap length 0:00:01.10
Peak level 73.9 %
Track quality 100.0 %
Test CRC 4A3CFF33
Copy CRC 4A3CFF33
Accurately ripped (confidence 21) [C1DB828C]
Copy OK
Track 11
Filename D:\Klaar\Randy Crawford - The Collection 1990 Flac\11 - Nightline.wav
Pre-gap length 0:00:00.30
Peak level 91.9 %
Track quality 100.0 %
Test CRC 50529603
Copy CRC 50529603
Accurately ripped (confidence 21) [1F570E83]
Copy OK
Track 12
Filename D:\Klaar\Randy Crawford - The Collection 1990 Flac\12 - Almaz.wav
Pre-gap length 0:00:01.60
Peak level 77.4 %
Track quality 100.0 %
Test CRC 566083F6
Copy CRC 566083F6
Accurately ripped (confidence 20) [2FEC56A4]
Copy OK
Track 13
Filename D:\Klaar\Randy Crawford - The Collection 1990 Flac\13 - Why.wav
Pre-gap length 0:00:00.45
Peak level 85.0 %
Track quality 100.0 %
Test CRC 5C731D23
Copy CRC 5C731D23
Accurately ripped (confidence 20) [345D74D4]
Copy OK
Track 14
Filename D:\Klaar\Randy Crawford - The Collection 1990 Flac\14 - I've Never Been To Me.wav
Pre-gap length 0:00:00.52
Peak level 91.7 %
Track quality 100.0 %
Test CRC 5A3F5F2C
Copy CRC 5A3F5F2C
Accurately ripped (confidence 21) [2CA594BA]
Copy OK
Track 15
Filename D:\Klaar\Randy Crawford - The Collection 1990 Flac\15 - Trade Winds.wav
Pre-gap length 0:00:01.37
Peak level 91.2 %
Track quality 100.0 %
Test CRC 48156301
Copy CRC 48156301
Accurately ripped (confidence 21) [8E65EA77]
Copy OK
Track 16
Filename D:\Klaar\Randy Crawford - The Collection 1990 Flac\16 - Same Old Story.wav
Pre-gap length 0:00:00.05
Peak level 98.8 %
Track quality 99.9 %
Test CRC 34A4285A
Copy CRC 34A4285A
Accurately ripped (confidence 20) [1923B8AE]
Copy OK
Track 17
Filename D:\Klaar\Randy Crawford - The Collection 1990 Flac\17 - Everybody Needs A Little Rain (Ft. Gerard Joling).wav
Pre-gap length 0:00:01.02
Peak level 99.3 %
Track quality 100.0 %
Test CRC D4973106
Copy CRC D4973106
Accurately ripped (confidence 20) [64D3D9F4]
Copy OK
All tracks accurately ripped
No errors occurred
End of status report
 
Содержание индексной карты (.CUE)
REM GENRE Soul
REM DATE 1990
REM DISCID E10FE211
REM COMMENT "ExactAudioCopy v0.99pb5"
PERFORMER "Randy Crawford"
TITLE "The Collection"
FILE "01. Knockin' On Heavens Door.flac" WAVE
TRACK 01 AUDIO
TITLE "Knockin' On Heavens Door"
PERFORMER "Randy Crawford"
INDEX 01 00:00:00
TRACK 02 AUDIO
TITLE "One Day I'll Fly Away"
PERFORMER "Randy Crawford"
INDEX 00 04:50:68
FILE "02. One Day I'll Fly Away.flac" WAVE
INDEX 01 00:00:00
TRACK 03 AUDIO
TITLE "Rainy Night In Georgia"
PERFORMER "Randy Crawford"
INDEX 00 04:19:48
FILE "03. Rainy Night In Georgia.flac" WAVE
INDEX 01 00:00:00
TRACK 04 AUDIO
TITLE "Windsong"
PERFORMER "Randy Crawford"
INDEX 00 04:11:62
FILE "04. Windsong.flac" WAVE
INDEX 01 00:00:00
TRACK 05 AUDIO
TITLE "You Might Need Somebody"
PERFORMER "Randy Crawford"
INDEX 00 03:26:50
FILE "05. You Might Need Somebody.flac" WAVE
INDEX 01 00:00:00
TRACK 06 AUDIO
TITLE "Secret Combination"
PERFORMER "Randy Crawford"
INDEX 00 04:17:15
FILE "06. Secret Combination.flac" WAVE
INDEX 01 00:00:00
TRACK 07 AUDIO
TITLE "Tender Falls The Rain"
PERFORMER "Randy Crawford"
INDEX 00 03:20:13
FILE "07. Tender Falls The Rain.flac" WAVE
INDEX 01 00:00:00
TRACK 08 AUDIO
TITLE "This 'Ole Heart Of Mine"
PERFORMER "Randy Crawford"
INDEX 00 03:56:52
FILE "08. This 'Ole Heart Of Mine.flac" WAVE
INDEX 01 00:00:00
TRACK 09 AUDIO
TITLE "Imagine"
PERFORMER "Randy Crawford"
INDEX 00 03:51:47
FILE "09. Imagine.flac" WAVE
INDEX 01 00:00:00
TRACK 10 AUDIO
TITLE "One Hello"
PERFORMER "Randy Crawford"
INDEX 00 04:28:38
FILE "10. One Hello.flac" WAVE
INDEX 01 00:00:00
TRACK 11 AUDIO
TITLE "Nightline"
PERFORMER "Randy Crawford"
INDEX 00 03:12:12
FILE "11. Nightline.flac" WAVE
INDEX 01 00:00:00
TRACK 12 AUDIO
TITLE "Almaz"
PERFORMER "Randy Crawford"
INDEX 00 03:43:38
FILE "12. Almaz.flac" WAVE
INDEX 01 00:00:00
TRACK 13 AUDIO
TITLE "Why"
PERFORMER "Randy Crawford"
INDEX 00 04:05:55
FILE "13. Why.flac" WAVE
INDEX 01 00:00:00
TRACK 14 AUDIO
TITLE "I've Never Been To Me"
PERFORMER "Randy Crawford"
INDEX 00 03:29:40
FILE "14. I've Never Been To Me.flac" WAVE
INDEX 01 00:00:00
TRACK 15 AUDIO
TITLE "Trade Winds"
PERFORMER "Randy Crawford"
INDEX 00 03:33:23
FILE "15. Trade Winds.flac" WAVE
INDEX 01 00:00:00
TRACK 16 AUDIO
TITLE "Same Old Story"
PERFORMER "Randy Crawford"
INDEX 00 04:54:70
FILE "16. Same Old Story.flac" WAVE
INDEX 01 00:00:00
TRACK 17 AUDIO
TITLE "Everybody Needs A Little Rain (feat. Gerard Joling)"
PERFORMER "Randy Crawford"
INDEX 00 04:04:28
FILE "17. Everybody Needs A Little Rain (feat. Gerard Joling).flac" WAVE
INDEX 01 00:00:00
Приватный:
Нет (DHT включён)
Размер:
399.92 Мб (419,344,896 байт) » файлов: 24
Участники:
0 раздают, 0 качают (0 участников всего)
Внешние участники:
3 раздают, 1 качают (4 участников всего) [ Обновить ]
Есть вопросы - пишите личное сообщение пользователю M0p94ok.
08:33
58
Нет комментариев. Ваш будет первым!