Поиск

(Funk, Soul, R&B) [CD] Randy Crawford - Hits - 1999, FLAC (tracks+.cue), lossless

(Funk, Soul, R&B) [CD] Randy Crawford - Hits - 1999, FLAC (tracks+.cue), lossless
Треклист:
Randy Crawford - Hits Жанр: Funk, Soul, R&B
Носитель: CD
Год издания: 1999
Издатель (лейбл): Warner Music
Номер по каталогу: 9548-37752-2
Аудиокодек: FLAC (*.flac)
Тип рипа: tracks+.cue
Битрейт аудио: lossless
Продолжительность: 72:54
Источник (релизер): What.cd (disorderian)
Наличие сканов в содержимом раздачи: сетевые
Треклист:
01. You Might Need Somebody (3:56)
02. Who's Crying Now (4:32)
03. Streetlife (4:17)
04. Knockin' On Heaven's Door (4:56)
05. You (4:41)
06. Rio De Janeiro Blue (4:14)
07. Give Me The Night (Chill Night Remix) (4:46)
08. Secret Combination (3:24)
09. Why (3:30)
10. One Day I'll Fly Away (4:19)
11. Shine (4:55)
12. Rainy Night In Georgia (4:12)
13. One Hello (3:18)
14. Same Old Story (Same Old Song) (4:07)
15. Almaz (4:06)
16. Tender Falls The Rain (3:58)
17. Imagine (5:43)
 
 
Лог создания рипа
Exact Audio Copy V1.0 beta 3 from 29. August 2011
EAC extraction logfile from 11. July 2014, 15:33
Randy Crawford / Hits
Used drive : TEAC CD-W540E Adapter: 3 ID: 0
Read mode : Secure
Utilize accurate stream : Yes
Defeat audio cache : Yes
Make use of C2 pointers : No
Read offset correction : 686
Overread into Lead-In and Lead-Out : No
Fill up missing offset samples with silence : Yes
Delete leading and trailing silent blocks : No
Null samples used in CRC calculations : Yes
Used interface : Native Win32 interface for Win NT & 2000
Gap handling : Appended to previous track
Used output format : User Defined Encoder
Selected bitrate : 896 kBit/s
Quality : High
Add ID3 tag : No
Command line compressor : C:\Program Files (x86)\FLAC Frontend\tools\flac.exe
Additional command line options : -8 -V -T "ARTIST=%artist%" -T "TITLE=%title%" -T "ALBUM=%albumtitle%" -T "DATE=%year%" -T "TRACKNUMBER=%tracknr%" -T "TOTALTRACKS=%numtracks%" -T "GENRE=%genre%" -T "ALBUMARTIST=%albumartist%" -T "ALBUM ARTIST=%albumartist%" -T "COMMENT=EAC Secure Mode, Test & Copy, AccurateRip, FLAC -8" %source%
TOC of the extracted CD
Track | Start | Length | Start sector | End sector
---------------------------------------------------------
1 | 0:00.00 | 3:56.37 | 0 | 17736
2 | 3:56.37 | 4:31.47 | 17737 | 38108
3 | 8:28.09 | 4:17.03 | 38109 | 57386
4 | 12:45.12 | 4:56.32 | 57387 | 79618
5 | 17:41.44 | 4:40.65 | 79619 | 100683
6 | 22:22.34 | 4:13.55 | 100684 | 119713
7 | 26:36.14 | 4:45.64 | 119714 | 141152
8 | 31:22.03 | 3:23.41 | 141153 | 156418
9 | 34:45.44 | 3:30.21 | 156419 | 172189
10 | 38:15.65 | 4:19.26 | 172190 | 191640
11 | 42:35.16 | 4:54.50 | 191641 | 213740
12 | 47:29.66 | 4:11.56 | 213741 | 232621
13 | 51:41.47 | 3:18.15 | 232622 | 247486
14 | 54:59.62 | 4:07.21 | 247487 | 266032
15 | 59:07.08 | 4:06.29 | 266033 | 284511
16 | 63:13.37 | 3:57.70 | 284512 | 302356
17 | 67:11.32 | 5:43.03 | 302357 | 328084
Track 1
Filename E:\PT\Randy Crawford - Hits(1999)[flac]\01 - Randy Crawford - You Might Need Somebody.wav
Pre-gap length 0:00:02.00
Peak level 99.9 %
Extraction speed 2.9 X
Track quality 100.0 %
Test CRC 5E343A90
Copy CRC 5E343A90
Accurately ripped (confidence 19) [FF93F0E9] (AR v2)
Copy OK
Track 2
Filename E:\PT\Randy Crawford - Hits(1999)[flac]\02 - Randy Crawford - Who's Crying Now.wav
Peak level 87.5 %
Extraction speed 3.3 X
Track quality 100.0 %
Test CRC 36ABD2ED
Copy CRC 36ABD2ED
Accurately ripped (confidence 19) [75803E1B] (AR v2)
Copy OK
Track 3
Filename E:\PT\Randy Crawford - Hits(1999)[flac]\03 - Randy Crawford Featuring Lava - Streetlife.wav
Pre-gap length 0:00:00.11
Peak level 92.5 %
Extraction speed 3.5 X
Track quality 100.0 %
Test CRC 8C2FB300
Copy CRC 8C2FB300
Accurately ripped (confidence 18) [2BDA8D1D] (AR v2)
Copy OK
Track 4
Filename E:\PT\Randy Crawford - Hits(1999)[flac]\04 - Randy Crawford - Knockin' On Heaven's Door.wav
Peak level 98.6 %
Extraction speed 3.8 X
Track quality 100.0 %
Test CRC 5A2782F5
Copy CRC 5A2782F5
Accurately ripped (confidence 19) [334EF3D7] (AR v2)
Copy OK
Track 5
Filename E:\PT\Randy Crawford - Hits(1999)[flac]\05 - Randy Crawford - You.wav
Peak level 85.8 %
Extraction speed 3.1 X
Track quality 99.9 %
Test CRC EE014E53
Copy CRC EE014E53
Accurately ripped (confidence 18) [A93A4064] (AR v2)
Copy OK
Track 6
Filename E:\PT\Randy Crawford - Hits(1999)[flac]\06 - Randy Crawford - Rio De Janeiro Blue.wav
Peak level 90.8 %
Extraction speed 4.2 X
Track quality 100.0 %
Test CRC 151B7D16
Copy CRC 151B7D16
Accurately ripped (confidence 18) [45F81396] (AR v2)
Copy OK
Track 7
Filename E:\PT\Randy Crawford - Hits(1999)[flac]\07 - Randy Crawford - Give Me The Night (Chill Night Remix).wav
Peak level 71.3 %
Extraction speed 3.3 X
Track quality 99.9 %
Test CRC 3844FF9D
Copy CRC 3844FF9D
Accurately ripped (confidence 19) [E82B1DA2] (AR v2)
Copy OK
Track 8
Filename E:\PT\Randy Crawford - Hits(1999)[flac]\08 - Randy Crawford - Secret Combination.wav
Peak level 96.2 %
Extraction speed 4.5 X
Track quality 100.0 %
Test CRC 25D92803
Copy CRC 25D92803
Accurately ripped (confidence 19) [5AE335EA] (AR v2)
Copy OK
Track 9
Filename E:\PT\Randy Crawford - Hits(1999)[flac]\09 - Randy Crawford - Why.wav
Peak level 95.5 %
Extraction speed 4.7 X
Track quality 100.0 %
Test CRC 9757C5A4
Copy CRC 9757C5A4
Accurately ripped (confidence 19) [5B2740D7] (AR v2)
Copy OK
Track 10
Filename E:\PT\Randy Crawford - Hits(1999)[flac]\10 - Randy Crawford - One Day I'll Fly Away.wav
Peak level 77.6 %
Extraction speed 5.0 X
Track quality 100.0 %
Test CRC 775BDC3F
Copy CRC 775BDC3F
Accurately ripped (confidence 18) [03CC114D] (AR v2)
Copy OK
Track 11
Filename E:\PT\Randy Crawford - Hits(1999)[flac]\11 - Randy Crawford - Shine.wav
Peak level 90.6 %
Extraction speed 5.3 X
Track quality 100.0 %
Test CRC 42330861
Copy CRC 42330861
Accurately ripped (confidence 19) [FB7CE35E] (AR v2)
Copy OK
Track 12
Filename E:\PT\Randy Crawford - Hits(1999)[flac]\12 - Randy Crawford - Rainy Night In Georgia.wav
Peak level 86.3 %
Extraction speed 5.4 X
Track quality 100.0 %
Test CRC 0BCB4E79
Copy CRC 0BCB4E79
Accurately ripped (confidence 19) [DE0459BE] (AR v2)
Copy OK
Track 13
Filename E:\PT\Randy Crawford - Hits(1999)[flac]\13 - Randy Crawford - One Hello.wav
Peak level 94.9 %
Extraction speed 3.2 X
Track quality 99.9 %
Test CRC B18375EC
Copy CRC B18375EC
Accurately ripped (confidence 17) [09E35C70] (AR v2)
Copy OK
Track 14
Filename E:\PT\Randy Crawford - Hits(1999)[flac]\14 - Randy Crawford - Same Old Story (Same Old Song).wav
Pre-gap length 0:00:00.50
Peak level 96.4 %
Extraction speed 5.6 X
Track quality 100.0 %
Test CRC 468F3AC0
Copy CRC 468F3AC0
Accurately ripped (confidence 18) [C105007C] (AR v2)
Copy OK
Track 15
Filename E:\PT\Randy Crawford - Hits(1999)[flac]\15 - Randy Crawford - Almaz.wav
Pre-gap length 0:00:00.35
Peak level 86.7 %
Extraction speed 5.7 X
Track quality 100.0 %
Test CRC C98C5A68
Copy CRC C98C5A68
Accurately ripped (confidence 17) [20B93D57] (AR v2)
Copy OK
Track 16
Filename E:\PT\Randy Crawford - Hits(1999)[flac]\16 - Randy Crawford - Tender Falls The Rain.wav
Pre-gap length 0:00:00.47
Peak level 88.3 %
Extraction speed 5.8 X
Track quality 100.0 %
Test CRC 2E4A7A1F
Copy CRC 2E4A7A1F
Accurately ripped (confidence 18) [8AA1A5A9] (AR v2)
Copy OK
Track 17
Filename E:\PT\Randy Crawford - Hits(1999)[flac]\17 - Randy Crawford Featuring Yellowjackets - Imagine.wav
Pre-gap length 0:00:00.38
Peak level 93.8 %
Extraction speed 6.3 X
Track quality 100.0 %
Test CRC D24997C9
Copy CRC D24997C9
Accurately ripped (confidence 17) [AEF504C0] (AR v2)
Copy OK
All tracks accurately ripped
No errors occurred
End of status report
---- CUETools DB Plugin V2.1.5
[CTDB TOCID: Hzxd1EG4oZwrHxtA4JTebRdqnOc-] database access error: 操作超时
==== Log checksum 3651CF6725F5A87144A45501B3403B9D51C6B7A8909578CD6EC14966EB09E400 ====
 
Содержание индексной карты (.CUE)
REM GENRE R&B
REM DATE 1999
REM DISCID F8111611
REM COMMENT "ExactAudioCopy v1.0b3"
PERFORMER "Randy Crawford"
TITLE "Hits"
FILE "01. You Might Need Somebody.flac" WAVE
TRACK 01 AUDIO
TITLE "You Might Need Somebody"
PERFORMER "Randy Crawford"
INDEX 01 00:00:00
FILE "02. Who's Crying Now.flac" WAVE
TRACK 02 AUDIO
TITLE "Who's Crying Now"
PERFORMER "Randy Crawford"
INDEX 01 00:00:00
TRACK 03 AUDIO
TITLE "Streetlife"
PERFORMER "Randy Crawford"
INDEX 00 04:31:36
FILE "03. Streetlife.flac" WAVE
INDEX 01 00:00:00
FILE "04. Knockin' On Heaven's Door.flac" WAVE
TRACK 04 AUDIO
TITLE "Knockin' On Heaven's Door"
PERFORMER "Randy Crawford"
INDEX 01 00:00:00
FILE "05. You.flac" WAVE
TRACK 05 AUDIO
TITLE "You"
PERFORMER "Randy Crawford"
INDEX 01 00:00:00
FILE "06. Rio De Janeiro Blue.flac" WAVE
TRACK 06 AUDIO
TITLE "Rio De Janeiro Blue"
PERFORMER "Randy Crawford"
INDEX 01 00:00:00
FILE "07. Give Me The Night (Chill Night Remix).flac" WAVE
TRACK 07 AUDIO
TITLE "Give Me The Night (Chill Night Remix)"
PERFORMER "Randy Crawford"
INDEX 01 00:00:00
FILE "08. Secret Combination.flac" WAVE
TRACK 08 AUDIO
TITLE "Secret Combination"
PERFORMER "Randy Crawford"
INDEX 01 00:00:00
FILE "09. Why.flac" WAVE
TRACK 09 AUDIO
TITLE "Why"
PERFORMER "Randy Crawford"
INDEX 01 00:00:00
FILE "10. One Day I'll Fly Away.flac" WAVE
TRACK 10 AUDIO
TITLE "One Day I'll Fly Away"
PERFORMER "Randy Crawford"
INDEX 01 00:00:00
FILE "11. Shine.flac" WAVE
TRACK 11 AUDIO
TITLE "Shine"
PERFORMER "Randy Crawford"
INDEX 01 00:00:00
FILE "12. Rainy Night In Georgia.flac" WAVE
TRACK 12 AUDIO
TITLE "Rainy Night In Georgia"
PERFORMER "Randy Crawford"
INDEX 01 00:00:00
FILE "13. One Hello.flac" WAVE
TRACK 13 AUDIO
TITLE "One Hello"
PERFORMER "Randy Crawford"
INDEX 01 00:00:00
TRACK 14 AUDIO
TITLE "Same Old Story (Same Old Song)"
PERFORMER "Randy Crawford"
INDEX 00 03:17:40
FILE "14. Same Old Story (Same Old Song).flac" WAVE
INDEX 01 00:00:00
TRACK 15 AUDIO
TITLE "Almaz"
PERFORMER "Randy Crawford"
INDEX 00 04:06:61
FILE "15. Almaz.flac" WAVE
INDEX 01 00:00:00
TRACK 16 AUDIO
TITLE "Tender Falls The Rain"
PERFORMER "Randy Crawford"
INDEX 00 04:05:57
FILE "16. Tender Falls The Rain.flac" WAVE
INDEX 01 00:00:00
TRACK 17 AUDIO
TITLE "Imagine"
PERFORMER "Randy Crawford"
INDEX 00 03:57:32
FILE "17. Imagine.flac" WAVE
INDEX 01 00:00:00
Приватный:
Нет (DHT включён)
Размер:
435.41 Мб (456,564,554 байт) » файлов: 25
Участники:
0 раздают, 0 качают (0 участников всего)
Внешние участники:
2 раздают, 1 качают (3 участников всего) [ Обновить ]
Есть вопросы - пишите личное сообщение пользователю M0p94ok.
08:33
93
Нет комментариев. Ваш будет первым!