Поиск

(Funk, Soul, R&B) [CD] Randy Crawford - Windsong (1982) - 2015, FLAC (tracks+.cue), lossless

(Funk, Soul, R&B) [CD] Randy Crawford - Windsong (1982) - 2015, FLAC (tracks+.cue), lossless
Треклист:
Randy Crawford - Windsong (1982) Жанр: Funk, Soul, R&B
Носитель: CD
Страна-производитель диска (релиза): Japan
Год издания: 2015
Издатель (лейбл): Warner Music Japan
Номер по каталогу: WPCR-28175
Аудиокодек: FLAC (*.flac)
Тип рипа: tracks+.cue
Битрейт аудио: lossless
Продолжительность: 38:21
Источник (релизер): What.cd (coron)
Наличие сканов в содержимом раздачи: сетевые от другого издания
Треклист:
01. Look Who's Lonely Now (3:39)
02. I Have Ev'rything But You (3:18)
03. He Reminds Me (4:39)
04. Letter Full Of Tears (3:14)
05. This Night Won't Last Forever (4:01)
06. One Hello (3:19)
07. Windsong (3:36)
08. When I'm Gone (2:43)
09. Don't Come Knockin' (3:48)
10. I Don't Want To Lose Him (3:15)
11. We Had A Love So Strong (2:50)
 
Лог создания рипа
Exact Audio Copy V1.0 beta 3 from 29. August 2011
EAC extraction logfile from 27. August 2015, 1:56
Randy Crawford / Windsong (2015 Remastered)
Used drive : PIONEER BD-RW BDR-XD05 Adapter: 2 ID: 0
Read mode : Secure
Utilize accurate stream : Yes
Defeat audio cache : Yes
Make use of C2 pointers : No
Read offset correction : 667
Overread into Lead-In and Lead-Out : No
Fill up missing offset samples with silence : Yes
Delete leading and trailing silent blocks : No
Null samples used in CRC calculations : Yes
Used interface : Native Win32 interface for Win NT & 2000
Gap handling : Appended to previous track
Used output format : User Defined Encoder
Selected bitrate : 1024 kBit/s
Quality : High
Add ID3 tag : No
Command line compressor : C:\Program Files (x86)\Exact Audio Copy\Flac\flac.exe
Additional command line options : -8 -V -T "ARTIST=%artist%" -T "TITLE=%title%" -T "ALBUM=%albumtitle%" -T "DATE=%year%" -T "TRACKNUMBER=%tracknr%" -T "GENRE=%genre%" -T "PERFORMER=%albuminterpret%" -T "COMPOSER=%composer%" %haslyrics%--tag-from-file=LYRICS="%lyricsfile%"%haslyrics% -T "ALBUMARTIST=%albumartist%" -T "DISCNUMBER=%cdnumber%" -T "TOTALDISCS=%totalcds%" -T "TOTALTRACKS=%numtracks%" -T "COMMENT=%comment%" %source% -o %dest%
TOC of the extracted CD
Track | Start | Length | Start sector | End sector
---------------------------------------------------------
1 | 0:00.00 | 3:39.30 | 0 | 16454
2 | 3:39.30 | 3:17.53 | 16455 | 31282
3 | 6:57.08 | 4:38.55 | 31283 | 52187
4 | 11:35.63 | 3:13.65 | 52188 | 66727
5 | 14:49.53 | 4:01.17 | 66728 | 84819
6 | 18:50.70 | 3:19.03 | 84820 | 99747
7 | 22:09.73 | 3:35.50 | 99748 | 115922
8 | 25:45.48 | 2:42.70 | 115923 | 128142
9 | 28:28.43 | 3:47.62 | 128143 | 145229
10 | 32:16.30 | 3:14.65 | 145230 | 159844
11 | 35:31.20 | 2:49.48 | 159845 | 172567
Track 1
Filename C:\EACRips\01 Look Who's Lonely Now.wav
Pre-gap length 0:00:02.00
Peak level 100.0 %
Extraction speed 2.8 X
Track quality 100.0 %
Test CRC 8209B604
Copy CRC 8209B604
Accurately ripped (confidence 1) [50AD060C] (AR v2)
Copy OK
Track 2
Filename C:\EACRips\02 I Have Ev'rything But You.wav
Pre-gap length 0:00:00.42
Peak level 100.0 %
Extraction speed 3.0 X
Track quality 100.0 %
Test CRC 93670206
Copy CRC 93670206
Accurately ripped (confidence 1) [8F529F14] (AR v2)
Copy OK
Track 3
Filename C:\EACRips\03 He Reminds Me.wav
Pre-gap length 0:00:01.24
Peak level 100.0 %
Extraction speed 3.4 X
Track quality 100.0 %
Test CRC FC9FE4AF
Copy CRC FC9FE4AF
Accurately ripped (confidence 1) [713C6E8E] (AR v2)
Copy OK
Track 4
Filename C:\EACRips\04 Letter Full Of Tears.wav
Pre-gap length 0:00:01.44
Peak level 100.0 %
Extraction speed 3.0 X
Track quality 99.9 %
Test CRC F936B119
Copy CRC F936B119
Accurately ripped (confidence 1) [3B4AA088] (AR v2)
Copy OK
Track 5
Filename C:\EACRips\05 This Night Won't Last Forever.wav
Pre-gap length 0:00:01.57
Peak level 100.0 %
Extraction speed 3.7 X
Track quality 100.0 %
Test CRC 1D989BFA
Copy CRC 1D989BFA
Accurately ripped (confidence 1) [3517073B] (AR v2)
Copy OK
Track 6
Filename C:\EACRips\06 One Hello.wav
Pre-gap length 0:00:01.26
Peak level 100.0 %
Extraction speed 3.9 X
Track quality 100.0 %
Test CRC 5F9D3690
Copy CRC 5F9D3690
Accurately ripped (confidence 1) [6413FDAE] (AR v2)
Copy OK
Track 7
Filename C:\EACRips\07 Windsong.wav
Pre-gap length 0:00:01.50
Peak level 100.0 %
Extraction speed 4.0 X
Track quality 100.0 %
Test CRC A67AC7BD
Copy CRC A67AC7BD
Accurately ripped (confidence 1) [5B4E25DB] (AR v2)
Copy OK
Track 8
Filename C:\EACRips\08 When I'm Gone.wav
Pre-gap length 0:00:00.60
Peak level 100.0 %
Extraction speed 4.0 X
Track quality 100.0 %
Test CRC 6F25E189
Copy CRC 6F25E189
Accurately ripped (confidence 1) [DE203EB4] (AR v2)
Copy OK
Track 9
Filename C:\EACRips\09 Don't Come Knockin'.wav
Pre-gap length 0:00:00.70
Peak level 100.0 %
Extraction speed 4.3 X
Track quality 100.0 %
Test CRC 52B0E61E
Copy CRC 52B0E61E
Accurately ripped (confidence 1) [1076EBFE] (AR v2)
Copy OK
Track 10
Filename C:\EACRips\10 I Don't Want To Lose Him.wav
Pre-gap length 0:00:00.86
Peak level 100.0 %
Extraction speed 3.8 X
Track quality 99.9 %
Test CRC 2950FCD9
Copy CRC 2950FCD9
Accurately ripped (confidence 1) [28B7AE2A] (AR v2)
Copy OK
Track 11
Filename C:\EACRips\11 We Had A Love So Strong.wav
Pre-gap length 0:00:01.22
Peak level 100.0 %
Extraction speed 3.7 X
Track quality 99.9 %
Test CRC F6DFE440
Copy CRC F6DFE440
Accurately ripped (confidence 1) [EF8092F9] (AR v2)
Copy OK
All tracks accurately ripped
No errors occurred
End of status report
---- CUETools DB Plugin V2.1.3
[CTDB TOCID: rtUfVD5rvFLF3CYKO8.JG6_G3hw-] found, Submit result: rtUfVD5rvFLF3CYKO8.JG6_G3hw- has been confirmed
[a7ddd0f5] (2/2) Accurately ripped
==== Log checksum 6110297C70749C88F5202E53A374899AFCD497A05ECADD6F0C8939F0A0C62B96 ====
 
Содержание индексной карты (.CUE)
REM GENRE Soul
REM DATE 1982
REM DISCID 8408FC0B
REM COMMENT "ExactAudioCopy v1.0b3"
CATALOG 4943674202072
PERFORMER "Randy Crawford"
TITLE "Windsong"
FILE "01. Look Who's Lonely Now.flac" WAVE
TRACK 01 AUDIO
TITLE "Look Who's Lonely Now"
PERFORMER "Randy Crawford"
INDEX 01 00:00:00
TRACK 02 AUDIO
TITLE "I Have Ev'rything But You"
PERFORMER "Randy Crawford"
INDEX 00 03:38:73
FILE "02. I Have Ev'rything But You.flac" WAVE
INDEX 01 00:00:00
TRACK 03 AUDIO
TITLE "He Reminds Me"
PERFORMER "Randy Crawford"
INDEX 00 03:16:35
FILE "03. He Reminds Me.flac" WAVE
INDEX 01 00:00:00
TRACK 04 AUDIO
TITLE "Letter Full Of Tears"
PERFORMER "Randy Crawford"
INDEX 00 04:37:22
FILE "04. Letter Full Of Tears.flac" WAVE
INDEX 01 00:00:00
TRACK 05 AUDIO
TITLE "This Night Won't Last Forever"
PERFORMER "Randy Crawford"
INDEX 00 03:12:22
FILE "05. This Night Won't Last Forever.flac" WAVE
INDEX 01 00:00:00
TRACK 06 AUDIO
TITLE "One Hello"
PERFORMER "Randy Crawford"
INDEX 00 03:59:72
FILE "06. One Hello.flac" WAVE
INDEX 01 00:00:00
TRACK 07 AUDIO
TITLE "Windsong"
PERFORMER "Randy Crawford"
INDEX 00 03:17:40
FILE "07. Windsong.flac" WAVE
INDEX 01 00:00:00
TRACK 08 AUDIO
TITLE "When I'm Gone"
PERFORMER "Randy Crawford"
INDEX 00 03:35:05
FILE "08. When I'm Gone.flac" WAVE
INDEX 01 00:00:00
TRACK 09 AUDIO
TITLE "Don't Come Knockin'"
PERFORMER "Randy Crawford"
INDEX 00 02:42:17
FILE "09. Don't Come Knockin'.flac" WAVE
INDEX 01 00:00:00
TRACK 10 AUDIO
TITLE "I Don't Want To Lose Him"
PERFORMER "Randy Crawford"
INDEX 00 03:46:72
FILE "10. I Don't Want To Lose Him.flac" WAVE
INDEX 01 00:00:00
TRACK 11 AUDIO
TITLE "We Had A Love So Strong"
PERFORMER "Randy Crawford"
INDEX 00 03:13:48
FILE "11. We Had A Love So Strong.flac" WAVE
INDEX 01 00:00:00
Приватный:
Нет (DHT включён)
Размер:
249.69 Мб (261,816,452 байт) » файлов: 24
Участники:
0 раздают, 0 качают (0 участников всего)
Внешние участники:
3 раздают, 1 качают (4 участников всего) [ Обновить ]
Есть вопросы - пишите личное сообщение пользователю M0p94ok.
08:32
67
Нет комментариев. Ваш будет первым!