Поиск

(Funk, Soul, R&B) [CD] Personal Life - Morning Light - 2013, FLAC (tracks+.cue), lossless

(Funk, Soul, R&B) [CD] Personal Life - Morning Light - 2013, FLAC (tracks+.cue), lossless
Треклист:
Personal Life - Morning Light
Жанр: Funk, Soul, R&B
Носитель: CD
Год издания: 2013
Издатель (лейбл): Expansion Records
Номер по каталогу: EXCDP 62
Аудиокодек: FLAC (*.flac)
Тип рипа: tracks+.cue
Битрейт аудио: lossless
Продолжительность: 44:34
Rip by JET 1
Наличие сканов в содержимом раздачи: да
Треклист:
01. Classic Lady (4:04)
02. Distance Can Be Sweet (4:31)
03. Give Into The Night (4:24)
04. Bring It Back (4:15)
05. Morning Light (4:01)
06. One Step Closer (3:55)
07. I Remember (4:25)
08. It Is What It Is (4:59)
09. Rainy Day In London (A Rainy Day In Monterey) (5:41)
10. There's A Time For Everything (4:21)
 
 
Лог создания рипа
Exact Audio Copy V1.0 beta 3 from 29. August 2011
EAC extraction logfile from 1. November 2015, 20:08
Personal Life / Morning Light
Used drive : GENERIC CDRCB05 Adapter: 4 ID: 0
Read mode : Secure
Utilize accurate stream : Yes
Defeat audio cache : Yes
Make use of C2 pointers : No
Read offset correction : 102
Overread into Lead-In and Lead-Out : No
Fill up missing offset samples with silence : Yes
Delete leading and trailing silent blocks : No
Null samples used in CRC calculations : Yes
Used interface : Native Win32 interface for Win NT & 2000
Gap handling : Appended to previous track
Used output format : User Defined Encoder
Selected bitrate : 1024 kBit/s
Quality : High
Add ID3 tag : No
Command line compressor : C:\Program Files\FLAC\flac.exe
Additional command line options : -8 -V -T "ARTIST=%artist%" -T "TITLE=%title%" -T "ALBUM=%albumtitle%" -T "DATE=%year%" -T "TRACKNUMBER=%tracknr%" -T "GENRE=%genre%" -T "PERFORMER=%albuminterpret%" -T "COMPOSER=%composer%" %haslyrics%--tag-from-file=LYRICS="%lyricsfile%"%haslyrics% -T "ALBUMARTIST=%albumartist%" -T "DISCNUMBER=%cdnumber%" -T "TOTALDISCS=%totalcds%" -T "TOTALTRACKS=%numtracks%" -T "COMMENT=%comment%" %source% -o %dest%
TOC of the extracted CD
Track | Start | Length | Start sector | End sector
---------------------------------------------------------
1 | 0:00.00 | 4:03.41 | 0 | 18265
2 | 4:03.41 | 4:31.13 | 18266 | 38603
3 | 8:34.54 | 4:23.38 | 38604 | 58366
4 | 12:58.17 | 4:14.55 | 58367 | 77471
5 | 17:12.72 | 4:00.67 | 77472 | 95538
6 | 21:13.64 | 3:54.54 | 95539 | 113142
7 | 25:08.43 | 4:24.57 | 113143 | 132999
8 | 29:33.25 | 4:58.58 | 133000 | 155407
9 | 34:32.08 | 5:40.45 | 155408 | 180952
10 | 40:12.53 | 4:20.60 | 180953 | 200512
Track 1
Filename G:\POSTS\Personal Life - Morning Light (2013)\01 - Classic Lady.wav
Pre-gap length 0:00:02.00
Peak level 98.8 %
Extraction speed 2.3 X
Track quality 100.0 %
Test CRC 2E410639
Copy CRC 2E410639
Accurately ripped (confidence 1) [8F2094F6] (AR v2)
Copy OK
Track 2
Filename G:\POSTS\Personal Life - Morning Light (2013)\02 - Distance Can Be Sweet.wav
Pre-gap length 0:00:01.00
Peak level 98.8 %
Extraction speed 2.6 X
Track quality 100.0 %
Test CRC 39BA9FF4
Copy CRC 39BA9FF4
Accurately ripped (confidence 1) [B7CAC6BC] (AR v2)
Copy OK
Track 3
Filename G:\POSTS\Personal Life - Morning Light (2013)\03 - Give Into The Night.wav
Pre-gap length 0:00:01.00
Peak level 98.7 %
Extraction speed 2.9 X
Track quality 100.0 %
Test CRC 99ED99B7
Copy CRC 99ED99B7
Accurately ripped (confidence 1) [4216BBB7] (AR v2)
Copy OK
Track 4
Filename G:\POSTS\Personal Life - Morning Light (2013)\04 - Bring It Back.wav
Pre-gap length 0:00:01.00
Peak level 98.8 %
Extraction speed 3.1 X
Track quality 100.0 %
Test CRC 9CC66E03
Copy CRC 9CC66E03
Accurately ripped (confidence 1) [0C5E4ACC] (AR v2)
Copy OK
Track 5
Filename G:\POSTS\Personal Life - Morning Light (2013)\05 - Morning Light.wav
Pre-gap length 0:00:01.00
Peak level 98.8 %
Extraction speed 3.3 X
Track quality 100.0 %
Test CRC B795DD07
Copy CRC B795DD07
Accurately ripped (confidence 1) [54FA5EA0] (AR v2)
Copy OK
Track 6
Filename G:\POSTS\Personal Life - Morning Light (2013)\06 - One Step Closer.wav
Pre-gap length 0:00:01.00
Peak level 98.8 %
Extraction speed 3.0 X
Track quality 99.9 %
Test CRC BF4ACEC8
Copy CRC BF4ACEC8
Accurately ripped (confidence 1) [C7C263E9] (AR v2)
Copy OK
Track 7
Filename G:\POSTS\Personal Life - Morning Light (2013)\07 - I Remember.wav
Pre-gap length 0:00:01.00
Peak level 98.7 %
Extraction speed 3.7 X
Track quality 100.0 %
Test CRC 75AE58DC
Copy CRC 75AE58DC
Accurately ripped (confidence 1) [28E8DD6D] (AR v2)
Copy OK
Track 8
Filename G:\POSTS\Personal Life - Morning Light (2013)\08 - It Is What It Is.wav
Pre-gap length 0:00:01.00
Peak level 98.8 %
Extraction speed 3.5 X
Track quality 99.9 %
Test CRC B628278C
Copy CRC B628278C
Accurately ripped (confidence 1) [892E5F7D] (AR v2)
Copy OK
Track 9
Filename G:\POSTS\Personal Life - Morning Light (2013)\09 - Rainy Day In London (A Rainy Day In Monterey).wav
Pre-gap length 0:00:01.00
Peak level 99.2 %
Extraction speed 3.8 X
Track quality 99.9 %
Test CRC 90778451
Copy CRC 90778451
Accurately ripped (confidence 1) [E2339A7C] (AR v2)
Copy OK
Track 10
Filename G:\POSTS\Personal Life - Morning Light (2013)\10 - There's A Time For Everything.wav
Pre-gap length 0:00:01.00
Peak level 98.8 %
Extraction speed 4.2 X
Track quality 100.0 %
Test CRC ADE29205
Copy CRC ADE29205
Accurately ripped (confidence 1) [C847A31A] (AR v2)
Copy OK
All tracks accurately ripped
No errors occurred
End of status report
==== Log checksum 655E2E48206D374C73621201E532F1E3BBB9CA14F8BFAFFADC32EEDE4DB0C46C ====
 
Содержание индексной карты (.CUE)
REM GENRE Soul
REM DATE 2013
REM DISCID 720A710A
REM COMMENT "ExactAudioCopy v1.0b3"
PERFORMER "Personal Life"
TITLE "Morning Light"
FILE "01 - Classic Lady.wav" WAVE
TRACK 01 AUDIO
TITLE "Classic Lady"
PERFORMER "Personal Life"
INDEX 01 00:00:00
TRACK 02 AUDIO
TITLE "Distance Can Be Sweet"
PERFORMER "Personal Life"
INDEX 00 04:02:41
FILE "02 - Distance Can Be Sweet.wav" WAVE
INDEX 01 00:00:00
TRACK 03 AUDIO
TITLE "Give Into The Night"
PERFORMER "Personal Life"
INDEX 00 04:30:13
FILE "03 - Give Into The Night.wav" WAVE
INDEX 01 00:00:00
TRACK 04 AUDIO
TITLE "Bring It Back"
PERFORMER "Personal Life"
INDEX 00 04:22:38
FILE "04 - Bring It Back.wav" WAVE
INDEX 01 00:00:00
TRACK 05 AUDIO
TITLE "Morning Light"
PERFORMER "Personal Life"
INDEX 00 04:13:55
FILE "05 - Morning Light.wav" WAVE
INDEX 01 00:00:00
TRACK 06 AUDIO
TITLE "One Step Closer"
PERFORMER "Personal Life"
INDEX 00 03:59:67
FILE "06 - One Step Closer.wav" WAVE
INDEX 01 00:00:00
TRACK 07 AUDIO
TITLE "I Remember"
PERFORMER "Personal Life"
INDEX 00 03:53:54
FILE "07 - I Remember.wav" WAVE
INDEX 01 00:00:00
TRACK 08 AUDIO
TITLE "It Is What It Is"
PERFORMER "Personal Life"
INDEX 00 04:23:57
FILE "08 - It Is What It Is.wav" WAVE
INDEX 01 00:00:00
TRACK 09 AUDIO
TITLE "Rainy Day In London (A Rainy Day In Monterey)"
PERFORMER "Personal Life"
INDEX 00 04:57:58
FILE "09 - Rainy Day In London (A Rainy Day In Monterey).wav" WAVE
INDEX 01 00:00:00
TRACK 10 AUDIO
TITLE "There's A Time For Everything"
PERFORMER "Personal Life"
INDEX 00 05:39:45
FILE "10 - There's A Time For Everything.wav" WAVE
INDEX 01 00:00:00
 
Об альбоме (сборнике)
Conceived sometime in 2010, ‘Personal Life’ is a London based collective formed Musician / Producer Robert Strauss, featuring the classic sounding voice of Stuart Lisbie, plus core members of Amy Winehouse’s touring band. The vision for this project is to bring back into popular consciousness the sound, production,songwriting & musicality dating back to the glory days of the music industry, when commercial pop also meant culturally significant, sophisticated and catchy music made with integrity for people of all ages to enjoy.
“We believe in a movement of real music, hand made to last the test of time. Reflecting the sounds and values of people during an incredibly inspiring, honest and spiritually elevated period in popular music history””.
Приватный:
Нет (DHT включён)
Размер:
421.52 Мб (441,991,282 байт) » файлов: 24
Участники:
0 раздают, 0 качают (0 участников всего)
Внешние участники:
1 раздают, 0 качают (1 участников всего) [ Обновить ]
Есть вопросы - пишите личное сообщение пользователю M0p94ok.
08:51
58
Нет комментариев. Ваш будет первым!