Поиск

(Vocal, Soul, Pop, Singer-Songwriter) [CD] Adele - 25 - 2015, FLAC (tracks+.cue), lossless

(Vocal, Soul, Pop, Singer-Songwriter) [CD] Adele - 25 - 2015, FLAC (tracks+.cue), lossless
Треклист:
Adele • 25
Жанр: Vocal, Soul, Pop, Singer-Songwriter
Год издания: 2015
Издатель (лейбл): XL Recordings
Номер по каталогу: XLCD740
Страна исполнителя (группы): UK
Аудиокодек: FLAC (*.flac)
Тип рипа: tracks+.cue
Битрейт аудио: lossless
Продолжительность: 48:25
Источник (релизер): спасибо Jojoo777
Наличие сканов: front
Треклист:
1. Hello
2. Send My Love (To Your New Lover)
3. I Miss You
4. When We Were Young
5. Remedy
6. Water Under the Bridge
7. River Lea
8. Love in the Dark
9. Million Years Ago
10. All I Ask
11. Sweetest Devotion
 
Лог создания рипа
X Lossless Decoder version 20141129 (148.1)
XLD extraction logfile from 2015-11-19 18:46:48 +0100
Adele / 25
Used drive : MATSHITA DVD-R UJ-8A8 (revision HB14)
Media type : Pressed CD
Ripper mode : XLD Secure Ripper
Disable audio cache : OK for the drive with a cache less than 1375KiB
Make use of C2 pointers : NO
Read offset correction : 102
Max retry count : 20
Gap status : Analyzed, Appended (except HTOA)
TOC of the extracted CD
Track | Start | Length | Start sector | End sector
---------------------------------------------------------
1 | 00:00:00 | 04:55:37 | 0 | 22161
2 | 04:55:37 | 03:43:06 | 22162 | 38892
3 | 08:38:43 | 05:48:47 | 38893 | 65039
4 | 14:27:15 | 04:50:68 | 65040 | 86857
5 | 19:18:08 | 04:05:32 | 86858 | 105264
6 | 23:23:40 | 04:00:32 | 105265 | 123296
7 | 27:23:72 | 03:45:32 | 123297 | 140203
8 | 31:09:29 | 04:45:71 | 140204 | 161649
9 | 35:55:25 | 03:47:05 | 161650 | 178679
10 | 39:42:30 | 04:31:60 | 178680 | 199064
11 | 44:14:15 | 04:11:52 | 199065 | 217941
AccurateRip Summary
Disc not found in AccurateRip DB.
All Tracks
Album gain : -10.14 dB
Peak : 0.998840
Statistics
Read error : 0
Jitter error (maybe fixed) : 0
Retry sector count : 0
Damaged sector count : 0
Track 01
Filename : /Users/Shared/01 Hello.flac
Pre-gap length : 00:02:00
Track gain : -10.40 dB
Peak : 0.998840
CRC32 hash (test run) : D66F532B
CRC32 hash : D66F532B
CRC32 hash (skip zero) : 662E8715
AccurateRip v1 signature : 59C1216E
AccurateRip v2 signature : C4981AD6
->Track not present in AccurateRip database.
Statistics
Read error : 0
Jitter error (maybe fixed) : 0
Retry sector count : 0
Damaged sector count : 0
Track 02
Filename : /Users/Shared/02 Send My Love (To Your New Lover).flac
Track gain : -7.34 dB
Peak : 0.998840
CRC32 hash (test run) : 153FD181
CRC32 hash : 153FD181
CRC32 hash (skip zero) : 0EB1709F
AccurateRip v1 signature : 65DA9770
AccurateRip v2 signature : 0A9183C5
->Track not present in AccurateRip database.
Statistics
Read error : 0
Jitter error (maybe fixed) : 0
Retry sector count : 0
Damaged sector count : 0
Track 03
Filename : /Users/Shared/03 I Miss You.flac
Track gain : -10.73 dB
Peak : 0.998840
CRC32 hash (test run) : 2951D322
CRC32 hash : 2951D322
CRC32 hash (skip zero) : 7C222131
AccurateRip v1 signature : 05EB053E
AccurateRip v2 signature : 3DA8445D
->Track not present in AccurateRip database.
Statistics
Read error : 0
Jitter error (maybe fixed) : 0
Retry sector count : 0
Damaged sector count : 0
Track 04
Filename : /Users/Shared/04 When We Were Young.flac
Track gain : -9.38 dB
Peak : 0.998840
CRC32 hash (test run) : AA21BF4B
CRC32 hash : AA21BF4B
CRC32 hash (skip zero) : 2B4661D6
AccurateRip v1 signature : CD2245EB
AccurateRip v2 signature : 3731E275
->Track not present in AccurateRip database.
Statistics
Read error : 0
Jitter error (maybe fixed) : 0
Retry sector count : 0
Damaged sector count : 0
Track 05
Filename : /Users/Shared/05 Remedy.flac
Track gain : -10.53 dB
Peak : 0.998840
CRC32 hash (test run) : E7984E07
CRC32 hash : E7984E07
CRC32 hash (skip zero) : B399E014
AccurateRip v1 signature : 2D03E3A7
AccurateRip v2 signature : 851F5934
->Track not present in AccurateRip database.
Statistics
Read error : 0
Jitter error (maybe fixed) : 0
Retry sector count : 0
Damaged sector count : 0
Track 06
Filename : /Users/Shared/06 Water Under the Bridge.flac
Track gain : -8.11 dB
Peak : 0.953186
CRC32 hash (test run) : 4A0E0BD1
CRC32 hash : 4A0E0BD1
CRC32 hash (skip zero) : 835B3DAA
AccurateRip v1 signature : 074B3D72
AccurateRip v2 signature : 14F6E3B5
->Track not present in AccurateRip database.
Statistics
Read error : 0
Jitter error (maybe fixed) : 0
Retry sector count : 0
Damaged sector count : 0
Track 07
Filename : /Users/Shared/07 River Lea.flac
Track gain : -10.00 dB
Peak : 0.998840
CRC32 hash (test run) : 0D096EA7
CRC32 hash : 0D096EA7
CRC32 hash (skip zero) : B8C74624
AccurateRip v1 signature : E30989CB
AccurateRip v2 signature : 820E23A2
->Track not present in AccurateRip database.
Statistics
Read error : 0
Jitter error (maybe fixed) : 0
Retry sector count : 0
Damaged sector count : 0
Track 08
Filename : /Users/Shared/08 Love in the Dark.flac
Track gain : -9.73 dB
Peak : 0.998840
CRC32 hash (test run) : CE83BAB9
CRC32 hash : CE83BAB9
CRC32 hash (skip zero) : 31E99AD2
AccurateRip v1 signature : C003ADF3
AccurateRip v2 signature : 8F250D6C
->Track not present in AccurateRip database.
Statistics
Read error : 0
Jitter error (maybe fixed) : 0
Retry sector count : 0
Damaged sector count : 0
Track 09
Filename : /Users/Shared/09 Million Years Ago.flac
Track gain : -7.78 dB
Peak : 0.998840
CRC32 hash (test run) : 4ABA3C0B
CRC32 hash : 4ABA3C0B
CRC32 hash (skip zero) : DD05A495
AccurateRip v1 signature : 5FF1E257
AccurateRip v2 signature : 8E4F1B2A
->Track not present in AccurateRip database.
Statistics
Read error : 0
Jitter error (maybe fixed) : 0
Retry sector count : 0
Damaged sector count : 0
Track 10
Filename : /Users/Shared/10 All I Ask.flac
Track gain : -11.27 dB
Peak : 0.998840
CRC32 hash (test run) : 7FB6C5FF
CRC32 hash : 7FB6C5FF
CRC32 hash (skip zero) : 0331F973
AccurateRip v1 signature : 85C27991
AccurateRip v2 signature : 90416111
->Track not present in AccurateRip database.
Statistics
Read error : 0
Jitter error (maybe fixed) : 0
Retry sector count : 0
Damaged sector count : 0
Track 11
Filename : /Users/Shared/11 Sweetest Devotion.flac
Track gain : -9.67 dB
Peak : 0.998840
CRC32 hash (test run) : 81B4BCD7
CRC32 hash : 81B4BCD7
CRC32 hash (skip zero) : 6D0D11CD
AccurateRip v1 signature : 5FD799E3
AccurateRip v2 signature : 538E7F89
->Track not present in AccurateRip database.
Statistics
Read error : 0
Jitter error (maybe fixed) : 0
Retry sector count : 0
Damaged sector count : 0
No errors occurred
End of status report
-----BEGIN XLD SIGNATURE-----
brQrajlikIpWKeO5IS2sCZsKOePmBN5n.yMC.E3LTrfRktCP_anpHwbkv4PvUoHX2ScgPjgV85.ye_0tzdBOEmxV.g4KX_9a.gxgA_G
-----END XLD SIGNATURE-----
 
Содержание индексной карты (.CUE)
TITLE "25"
PERFORMER "Adele"
CATALOG 0634904074029
REM DATE "2015"
REM DISCNUMBER 1
REM TOTALDISCS 1
REM DISCID 980B590B
REM REPLAYGAIN_ALBUM_GAIN -10.14 dB
REM REPLAYGAIN_ALBUM_PEAK 0.998840
FILE "01 Hello.flac" WAVE
TRACK 01 AUDIO
TITLE "Hello"
PERFORMER "Adele"
ISRC GBBKS1500214
REM REPLAYGAIN_TRACK_GAIN -10.40 dB
REM REPLAYGAIN_TRACK_PEAK 0.998840
INDEX 01 00:00:00
FILE "02 Send My Love (To Your New Lover).flac" WAVE
TRACK 02 AUDIO
TITLE "Send My Love (To Your New Lover)"
PERFORMER "Adele"
ISRC GBBKS1500215
REM REPLAYGAIN_TRACK_GAIN -7.34 dB
REM REPLAYGAIN_TRACK_PEAK 0.998840
INDEX 01 00:00:00
FILE "03 I Miss You.flac" WAVE
TRACK 03 AUDIO
TITLE "I Miss You"
PERFORMER "Adele"
ISRC GBBKS1500216
REM REPLAYGAIN_TRACK_GAIN -10.73 dB
REM REPLAYGAIN_TRACK_PEAK 0.998840
INDEX 01 00:00:00
FILE "04 When We Were Young.flac" WAVE
TRACK 04 AUDIO
TITLE "When We Were Young"
PERFORMER "Adele"
ISRC GBBKS1500217
REM REPLAYGAIN_TRACK_GAIN -9.38 dB
REM REPLAYGAIN_TRACK_PEAK 0.998840
INDEX 01 00:00:00
FILE "05 Remedy.flac" WAVE
TRACK 05 AUDIO
TITLE "Remedy"
PERFORMER "Adele"
ISRC GBBKS1500218
REM REPLAYGAIN_TRACK_GAIN -10.53 dB
REM REPLAYGAIN_TRACK_PEAK 0.998840
INDEX 01 00:00:00
FILE "06 Water Under the Bridge.flac" WAVE
TRACK 06 AUDIO
TITLE "Water Under the Bridge"
PERFORMER "Adele"
ISRC GBBKS1500219
REM REPLAYGAIN_TRACK_GAIN -8.11 dB
REM REPLAYGAIN_TRACK_PEAK 0.953186
INDEX 01 00:00:00
FILE "07 River Lea.flac" WAVE
TRACK 07 AUDIO
TITLE "River Lea"
PERFORMER "Adele"
ISRC GBBKS1500220
REM REPLAYGAIN_TRACK_GAIN -10.00 dB
REM REPLAYGAIN_TRACK_PEAK 0.998840
INDEX 01 00:00:00
FILE "08 Love in the Dark.flac" WAVE
TRACK 08 AUDIO
TITLE "Love in the Dark"
PERFORMER "Adele"
ISRC GBBKS1500221
REM REPLAYGAIN_TRACK_GAIN -9.73 dB
REM REPLAYGAIN_TRACK_PEAK 0.998840
INDEX 01 00:00:00
FILE "09 Million Years Ago.flac" WAVE
TRACK 09 AUDIO
TITLE "Million Years Ago"
PERFORMER "Adele"
ISRC GBBKS1500222
REM REPLAYGAIN_TRACK_GAIN -7.78 dB
REM REPLAYGAIN_TRACK_PEAK 0.998840
INDEX 01 00:00:00
FILE "10 All I Ask.flac" WAVE
TRACK 10 AUDIO
TITLE "All I Ask"
PERFORMER "Adele"
ISRC GBBKS1500223
REM REPLAYGAIN_TRACK_GAIN -11.27 dB
REM REPLAYGAIN_TRACK_PEAK 0.998840
INDEX 01 00:00:00
FILE "11 Sweetest Devotion.flac" WAVE
TRACK 11 AUDIO
TITLE "Sweetest Devotion"
PERFORMER "Adele"
ISRC GBBKS1500224
REM REPLAYGAIN_TRACK_GAIN -9.67 dB
REM REPLAYGAIN_TRACK_PEAK 0.998840
INDEX 01 00:00:00
 
Об альбоме
Adele’s “25” is a 10. Well, we knew that. “Hello” already has its fans and it’s number 1 everywhere. But “When We Were Young” is so deliciously constructed with a gorgeous hook that we’ll be hearing it every day for the the next ten years. I imagine Tobias Jesso’s stock will rise on Friday like on Apple’s on the day of a new iPhone release. This is maybe the best new song by anyone in years.
While “21” became a touchstone, and sold millions of copies, the songs on “21” are unexpectedly great. Their selection reminds me of how Clive Davis curated records for Whitney Houston. What a beautiful job Adele and her team have done finalizing the 11 main songs (I don’t yet have the extra songs on the Target edition.)
Somewhere in heaven, Dusty Springfield is smiling. Somewhere in England, Alison Moyet isn’t getting credit for laying this groundwork. But here goes– “25” ranges from startling and new to comfortable as a warm slipper. With this album you can drink Champagne, then switch to hot cider.
“Send My Love (to Your New Lover)”– a Max Martin special with a tropical feel. Someone has to study this man’s brain. How can he write in so many genres? And successfully? A good second track following “Hello” heavy and light at the same time.
“I Miss You” brings in Paul Epworth, Adele’s main collaborator through her career. It’s just the two of them– he’s playing everything. An odd choice for the 3rd track. A bit of a speed bump. The only song on the album that needs time. Someone listened to Joni Mitchell’s “Hissing of Summer Lawns” album a lot.
“Remedy” is spare and also full of hooks, co-written with Ryan Tedder. This guy is one of our great songwriters, like John Legend, or Rob Thomas. Someone needs to record a cover album of his songs. OneRepublic is fun but it doesn’t do him justice, it sort of hides him.
“Water Under the Bridge” shows that “Hell0” co-writer Greg Kurstin does know how to make a song move– there will be dance remixes. This is a catchy song, an understatement. You don’t want it to end. A potential number 1 single.
“River Lea” is a modern gospel number from Danger Mouse that mines Adele’s lower register and finds her blissfully in an R&B groove.
“Love in the Dark” — is a big soap opera, and you can already imagine the hardcore fans singing along in darkened theaters and weeping
“Million Years Ago” — also spare, accompanied by guitar, co-written with Greg Kurstin again, recalls a lot of Sixties ballads from “Yesterday When I Was Young” to “Windmills of Your Mind.”
“All I Ask” — the Bruno Mars track. Another ballad, rich with piano, a nice hook, and ready for hankies. Greg Phillinganes’ piano is memorable.
“Sweetest Devotion” — written with Paul Epworth, ends the album proper with a big old fashioned album track (remember those?)– it’s grand and epic, and moves (thank goodness, since we’ve just had a couple of ballads). This is the way to close, on a high note, singing along. Perfect. (Roger Friedman)
 
Сканы
Приватный:
Нет (DHT включён)
Размер:
288.05 Мб (302,039,310 байт) » файлов: 14
Участники:
0 раздают, 0 качают (0 участников всего)
Внешние участники:
32 раздают, 11 качают (43 участников всего) [ Обновить ]
Есть вопросы - пишите личное сообщение пользователю M0p94ok.
08:50
105
Нет комментариев. Ваш будет первым!