Поиск

(soul, blues, rhythm & blues) [CD] Renee Geyer - It's A Man's Man's World - 1995, FLAC (image+.cue), lossless

(soul, blues, rhythm & blues) [CD] Renee Geyer - It's A Man's Man's World - 1995, FLAC (image+.cue), lossless
Треклист:
Renee Geyer / It's A Man's Man's World
Жанр: soul, blues, rhythm & blues
Носитель: CD
Страна-производитель диска (релиза): Australia
Год издания: 1995
Издатель (лейбл): Mushroom
Номер по каталогу: 9 397603 230127
Страна исполнителя (группы): Australia
Аудиокодек: FLAC (*.flac)
Тип рипа: image+.cue
Битрейт аудио: lossless
Продолжительность: 00:47:29
Источник (релизер): рип с собственного CD
Наличие сканов в содержимом раздачи: да, *.jpg, 600dpi
 
Треклист
01. It's A Man's Man's World                [0:03:34.15]
02. They Tell Me Of An Uncloudy Day [0:03:42.45]
03. Take Me Where You Took Me Last Night [0:03:53.37]
04. Since I Fell For You [0:03:42.68]
05. What Do I Do On Sunday Morning [0:03:58.37]
06. Love The Way You Love [0:03:15.00]
07. Scarlet Ribbons [0:02:45.00]
08. Do Your Thing [0:03:44.45]
09. And I Love Him [0:05:14.45]
10. It's Been A Long Time [0:03:23.55]
11. Mama's Little Girl [0:03:26.20]
12. Once In A Lifetime Thing [0:03:33.25]
13. Feel Good [0:03:15.33]
 
Лог создания рипа
Exact Audio Copy V1.0 beta 3 from 29. August 2011
EAC extraction logfile from 18. November 2015, 23:56
Renee Geyer / It's A Man's Man's World
Used drive : Optiarc DVD RW AD-7593A Adapter: 3 ID: 0
Read mode : Secure
Utilize accurate stream : Yes
Defeat audio cache : Yes
Make use of C2 pointers : No
Read offset correction : 48
Overread into Lead-In and Lead-Out : No
Fill up missing offset samples with silence : Yes
Delete leading and trailing silent blocks : No
Null samples used in CRC calculations : Yes
Used interface : Native Win32 interface for Win NT & 2000
Used output format : User Defined Encoder
Selected bitrate : 896 kBit/s
Quality : High
Add ID3 tag : No
Command line compressor : H:\PORTABL-ALT\Exact Audio Copy 1_0 beta 3 Portable\Exact Audio Copy 1.0 beta 3 Portable\EAC_1.0_beta_3_Portable_Multilingual\App\EAC\FLAC\flac.exe
Additional command line options : -6 -V -T "ARTIST=%artist%" -T "TITLE=%title%" -T "ALBUM=%albumtitle%" -T "DATE=%year%" -T "TRACKNUMBER=%tracknr%" -T "GENRE=%genre%" -T "COMMENT=%comment%" %hascover%--picture="%coverfile%"%hascover% %source% -o %dest%
TOC of the extracted CD
Track | Start | Length | Start sector | End sector
---------------------------------------------------------
1 | 0:00.00 | 3:34.15 | 0 | 16064
2 | 3:34.15 | 3:42.45 | 16065 | 32759
3 | 7:16.60 | 3:53.37 | 32760 | 50271
4 | 11:10.22 | 3:42.68 | 50272 | 66989
5 | 14:53.15 | 3:58.37 | 66990 | 84876
6 | 18:51.52 | 3:15.00 | 84877 | 99501
7 | 22:06.52 | 2:45.00 | 99502 | 111876
8 | 24:51.52 | 3:44.45 | 111877 | 128721
9 | 28:36.22 | 5:14.45 | 128722 | 152316
10 | 33:50.67 | 3:23.55 | 152317 | 167596
11 | 37:14.47 | 3:26.20 | 167597 | 183066
12 | 40:40.67 | 3:33.25 | 183067 | 199066
13 | 44:14.17 | 3:15.33 | 199067 | 213724
Range status and errors
Selected range
Filename I:\Renee Geyer - It's A Man's Man's World\Renee Geyer - It's A Man's Man's World.wav
Peak level 99.9 %
Extraction speed 4.0 X
Range quality 100.0 %
Test CRC 002250DC
Copy CRC 002250DC
Copy OK
No errors occurred
AccurateRip summary
Track 1 accurately ripped (confidence 3) [BDE48EE9] (AR v2)
Track 2 accurately ripped (confidence 2) [C9829C60] (AR v2)
Track 3 accurately ripped (confidence 2) [C8298CDC] (AR v2)
Track 4 accurately ripped (confidence 2) [EA1D286D] (AR v2)
Track 5 accurately ripped (confidence 2) [C22E32D8] (AR v2)
Track 6 accurately ripped (confidence 2) [1F7459AD] (AR v2)
Track 7 accurately ripped (confidence 2) [636BB113] (AR v2)
Track 8 accurately ripped (confidence 2) [254DF2B8] (AR v2)
Track 9 accurately ripped (confidence 2) [A1DED9A6] (AR v2)
Track 10 accurately ripped (confidence 2) [8C93B6DD] (AR v2)
Track 11 accurately ripped (confidence 2) [58383B04] (AR v2)
Track 12 accurately ripped (confidence 2) [BB27EEE4] (AR v2)
Track 13 accurately ripped (confidence 2) [819B76E8] (AR v2)
All tracks accurately ripped
End of status report
==== Log checksum 4C5A7B8081DB47ADD66E76446EDBAA67FCCBE51ED9B1BB077435CCF41785A74A ====
 
Содержание индексной карты (.CUE)
REM GENRE Blues
REM DATE 1983
REM DISCID AA0B210D
REM COMMENT "ExactAudioCopy v1.0b3"
PERFORMER "Renee Geyer"
TITLE "It's A Man's Man's World"
FILE "Renee Geyer - It's A Man's Man's World.flac" WAVE
TRACK 01 AUDIO
TITLE "It's A Man's Man's World"
PERFORMER "Renee Geyer"
INDEX 01 00:00:00
TRACK 02 AUDIO
TITLE "They Tell Me Of An Uncloudy Day"
PERFORMER "Renee Geyer"
INDEX 00 03:31:70
INDEX 01 03:34:15
TRACK 03 AUDIO
TITLE "Take Me Where You Took Me Last Night"
PERFORMER "Renee Geyer"
INDEX 00 07:14:65
INDEX 01 07:16:60
TRACK 04 AUDIO
TITLE "Since I Fell For You"
PERFORMER "Renee Geyer"
INDEX 01 11:10:22
TRACK 05 AUDIO
TITLE "What Do I Do On Sunday Morning"
PERFORMER "Renee Geyer"
INDEX 01 14:53:15
TRACK 06 AUDIO
TITLE "Love The Way You Love"
PERFORMER "Renee Geyer"
INDEX 01 18:51:52
TRACK 07 AUDIO
TITLE "Scarlet Ribbons"
PERFORMER "Renee Geyer"
INDEX 00 22:05:20
INDEX 01 22:06:52
TRACK 08 AUDIO
TITLE "Do Your Thing"
PERFORMER "Renee Geyer"
INDEX 01 24:51:52
TRACK 09 AUDIO
TITLE "And I Love Him"
PERFORMER "Renee Geyer"
INDEX 00 28:34:65
INDEX 01 28:36:22
TRACK 10 AUDIO
TITLE "It's Been A Long Time"
PERFORMER "Renee Geyer"
INDEX 01 33:50:67
TRACK 11 AUDIO
TITLE "Mama's Little Girl"
PERFORMER "Renee Geyer"
INDEX 00 37:13:10
INDEX 01 37:14:47
TRACK 12 AUDIO
TITLE "Once In A Lifetime Thing"
PERFORMER "Renee Geyer"
INDEX 01 40:40:67
TRACK 13 AUDIO
TITLE "Feel Good"
PERFORMER "Renee Geyer"
INDEX 01 44:14:17
 
Сканы в раздаче (в уменьшенном размере)




 
АЧХ и СПЕКТР
 
Доп. информация
Mould SID Code (Код пресса): IFPI 7955 (Summit CD Manufacture Pte Ltd, Австралия)
Mastering SID Code (Код матрицы): IFPI LR11 (Summit Technology Australia Pty. Ltd. / Digital Audio Technologies, Австралия)
... ну вот все говорят mannish boy, Muddy Waters, дедушка чикагского блюза... Ну да! основа, легенда... слушаешь: ленивенько, растянуто, может так и надо? Но! в 77-ом, белый до мозга костей Johnny Winter у себя в студии строит разомлевших на солнце негров и появляется великий блюз! И понимаешь - вот где ритм!
...итальянцы, una furtiva lagrima, Карузо, Марио Ланца, ну да, ну да... распевчато так заливаются, любуются собой, соловушки... А потом викинг в двадцатом поколении, Юсси Бьёрлинг, так споёт про "слезинку украдкой", что, действительно, слёзы на глазах... и понимаешь: вот где душа!
... или вот, Джеймс Браун: надрывается бедненький про "мужской, мужской мир...", и вроде как веришь ему. Но послушайте Renee Geyer! От этого голоса рыжей еврейки разрывается сердце! как так можно петь?! ...man's man's world...
Приватный:
Нет (DHT включён)
Размер:
319.04 Мб (334,536,051 байт) » файлов: 11
Участники:
0 раздают, 0 качают (0 участников всего)
Внешние участники:
3 раздают, 1 качают (4 участников всего) [ Обновить ]
No seeders - write a personal message to user M0p94ok. Нет сидеров - пишите личное сообщение пользователю M0p94ok.
08:52
58
Нет комментариев. Ваш будет первым!