Поиск

(Funk, Soul, R&B) [CD] Keith Washington - Collection, 3 Albums - 1991-1998, FLAC (tracks+.cue), lossless

(Funk, Soul, R&B) [CD] Keith Washington - Collection, 3 Albums - 1991-1998, FLAC (tracks+.cue), lossless
Треклист:
Keith Washington - Collection, 3 Albums

Жанр: Funk, Soul, R&B | Носитель: CD | Год издания: 1991-1998
Аудиокодек: FLAC (*.flac) | Тип рипа: tracks+.cue | Битрейт аудио: lossless
Продолжительность: 02:51:35 | Rip by JET 1
Наличие сканов: да 
 
 
1991 • Make Time For Love
Год издания: 1991
Издатель (лейбл): Qwest Records
Номер по каталогу: 26528-2
Продолжительность: 49:20
Треклист:
01. All Night (4:21)
02. Make Time For Love (5:47)
03. Kissing You (4:55)
04. Are You Still In Love With Me (5:08)
05. When You Love Somebody (4:45)
06. Ready, Willing And Able (4:59)
07. I'll Be There (4:49)
08. When It Comes To You (4:45)
09. Lovers After All (4:49)
10. Closer (5:02)
 
 
Лог создания рипа
Exact Audio Copy V1.0 beta 3 from 29. August 2011
EAC extraction logfile from 20. June 2015, 8:57
Keith Washington / Make Time For Love
Used drive : GENERIC CDRCB05 Adapter: 4 ID: 0
Read mode : Secure
Utilize accurate stream : Yes
Defeat audio cache : Yes
Make use of C2 pointers : No
Read offset correction : 102
Overread into Lead-In and Lead-Out : No
Fill up missing offset samples with silence : Yes
Delete leading and trailing silent blocks : No
Null samples used in CRC calculations : Yes
Used interface : Native Win32 interface for Win NT & 2000
Gap handling : Appended to previous track
Used output format : User Defined Encoder
Selected bitrate : 1024 kBit/s
Quality : High
Add ID3 tag : No
Command line compressor : C:\Program Files\FLAC\flac.exe
Additional command line options : -8 -V -T "ARTIST=%artist%" -T "TITLE=%title%" -T "ALBUM=%albumtitle%" -T "DATE=%year%" -T "TRACKNUMBER=%tracknr%" -T "GENRE=%genre%" -T "PERFORMER=%albuminterpret%" -T "COMPOSER=%composer%" %haslyrics%--tag-from-file=LYRICS="%lyricsfile%"%haslyrics% -T "ALBUMARTIST=%albumartist%" -T "DISCNUMBER=%cdnumber%" -T "TOTALDISCS=%totalcds%" -T "TOTALTRACKS=%numtracks%" -T "COMMENT=%comment%" %source% -o %dest%
TOC of the extracted CD
Track | Start | Length | Start sector | End sector
---------------------------------------------------------
1 | 0:00.00 | 4:21.35 | 0 | 19609
2 | 4:21.35 | 5:47.25 | 19610 | 45659
3 | 10:08.60 | 4:54.50 | 45660 | 67759
4 | 15:03.35 | 5:08.32 | 67760 | 90891
5 | 20:11.67 | 4:44.40 | 90892 | 112231
6 | 24:56.32 | 4:59.33 | 112232 | 134689
7 | 29:55.65 | 4:48.40 | 134690 | 156329
8 | 34:44.30 | 4:44.62 | 156330 | 177691
9 | 39:29.17 | 4:48.55 | 177692 | 199346
10 | 44:17.72 | 5:01.55 | 199347 | 221976
Track 1
Filename F:\MUSIC\0\POSTS\Keith Washington - Make Time For Love (1991)\01 - All Night.wav
Pre-gap length 0:00:02.00
Peak level 94.1 %
Extraction speed 2.4 X
Track quality 100.0 %
Test CRC CE1CF1DC
Copy CRC CE1CF1DC
Accurately ripped (confidence 11) [8C0B26F8] (AR v2)
Copy OK
Track 2
Filename F:\MUSIC\0\POSTS\Keith Washington - Make Time For Love (1991)\02 - Make Time For Love.wav
Pre-gap length 0:00:01.05
Peak level 95.8 %
Extraction speed 2.6 X
Track quality 100.0 %
Test CRC 3361B4F7
Copy CRC 3361B4F7
Accurately ripped (confidence 11) [2A3C48E2] (AR v2)
Copy OK
Track 3
Filename F:\MUSIC\0\POSTS\Keith Washington - Make Time For Love (1991)\03 - Kissing You.wav
Pre-gap length 0:00:00.60
Peak level 98.2 %
Extraction speed 2.8 X
Track quality 100.0 %
Test CRC 28C2BA7E
Copy CRC 28C2BA7E
Accurately ripped (confidence 11) [6C1E9902] (AR v2)
Copy OK
Track 4
Filename F:\MUSIC\0\POSTS\Keith Washington - Make Time For Love (1991)\04 - Are You Still In Love With Me.wav
Pre-gap length 0:00:01.25
Peak level 98.8 %
Extraction speed 2.7 X
Track quality 99.9 %
Test CRC 4B55F80A
Copy CRC 4B55F80A
Accurately ripped (confidence 11) [62BB16A3] (AR v2)
Copy OK
Track 5
Filename F:\MUSIC\0\POSTS\Keith Washington - Make Time For Love (1991)\05 - When You Love Somebody.wav
Pre-gap length 0:00:00.50
Peak level 100.0 %
Extraction speed 3.1 X
Track quality 99.9 %
Test CRC 7002421F
Copy CRC 7002421F
Accurately ripped (confidence 11) [EAEEA21D] (AR v2)
Copy OK
Track 6
Filename F:\MUSIC\0\POSTS\Keith Washington - Make Time For Love (1991)\06 - Ready, Willing And Able.wav
Pre-gap length 0:00:00.35
Peak level 100.0 %
Extraction speed 3.4 X
Track quality 99.9 %
Test CRC CE5ED6F4
Copy CRC CE5ED6F4
Accurately ripped (confidence 11) [948AE21B] (AR v2)
Copy OK
Track 7
Filename F:\MUSIC\0\POSTS\Keith Washington - Make Time For Love (1991)\07 - I'll Be There.wav
Pre-gap length 0:00:01.08
Peak level 97.1 %
Extraction speed 3.9 X
Track quality 100.0 %
Test CRC AE3D1457
Copy CRC AE3D1457
Accurately ripped (confidence 11) [B20FE38B] (AR v2)
Copy OK
Track 8
Filename F:\MUSIC\0\POSTS\Keith Washington - Make Time For Love (1991)\08 - When It Comes To You.wav
Pre-gap length 0:00:01.00
Peak level 95.8 %
Extraction speed 3.7 X
Track quality 99.9 %
Test CRC 94C7B73C
Copy CRC 94C7B73C
Accurately ripped (confidence 11) [E907179B] (AR v2)
Copy OK
Track 9
Filename F:\MUSIC\0\POSTS\Keith Washington - Make Time For Love (1991)\09 - Lovers After All.wav
Pre-gap length 0:00:01.25
Peak level 95.3 %
Extraction speed 4.2 X
Track quality 100.0 %
Test CRC 363F4C6B
Copy CRC 363F4C6B
Accurately ripped (confidence 11) [C70559BE] (AR v2)
Copy OK
Track 10
Filename F:\MUSIC\0\POSTS\Keith Washington - Make Time For Love (1991)\10 - Closer.wav
Pre-gap length 0:00:01.37
Peak level 95.0 %
Extraction speed 4.3 X
Track quality 100.0 %
Test CRC 8AE2EBD7
Copy CRC 8AE2EBD7
Accurately ripped (confidence 11) [8D1A00E3] (AR v2)
Copy OK
All tracks accurately ripped
No errors occurred
End of status report
==== Log checksum BA58DA171EB35D0635916E982AC4A328A2B16AB6177F927C7DE7B28284457D6A ====
 
Содержание индексной карты (.CUE)
REM GENRE Soul
REM DATE 1991
REM DISCID 8A0B8F0A
REM COMMENT "ExactAudioCopy v1.0b3"
PERFORMER "Keith Washington"
TITLE "Make Time For Love"
FILE "01 - All Night.wav" WAVE
TRACK 01 AUDIO
TITLE "All Night"
PERFORMER "Keith Washington"
INDEX 01 00:00:00
TRACK 02 AUDIO
TITLE "Make Time For Love"
PERFORMER "Keith Washington"
INDEX 00 04:20:30
FILE "02 - Make Time For Love.wav" WAVE
INDEX 01 00:00:00
TRACK 03 AUDIO
TITLE "Kissing You"
PERFORMER "Keith Washington"
INDEX 00 05:46:40
FILE "03 - Kissing You.wav" WAVE
INDEX 01 00:00:00
TRACK 04 AUDIO
TITLE "Are You Still In Love With Me"
PERFORMER "Keith Washington"
INDEX 00 04:53:25
FILE "04 - Are You Still In Love With Me.wav" WAVE
INDEX 01 00:00:00
TRACK 05 AUDIO
TITLE "When You Love Somebody"
PERFORMER "Keith Washington"
INDEX 00 05:07:57
FILE "05 - When You Love Somebody.wav" WAVE
INDEX 01 00:00:00
TRACK 06 AUDIO
TITLE "Ready, Willing And Able"
PERFORMER "Keith Washington"
INDEX 00 04:44:05
FILE "06 - Ready, Willing And Able.wav" WAVE
INDEX 01 00:00:00
TRACK 07 AUDIO
TITLE "I'll Be There"
PERFORMER "Keith Washington"
INDEX 00 04:58:25
FILE "07 - I'll Be There.wav" WAVE
INDEX 01 00:00:00
TRACK 08 AUDIO
TITLE "When It Comes To You"
PERFORMER "Keith Washington"
INDEX 00 04:47:40
FILE "08 - When It Comes To You.wav" WAVE
INDEX 01 00:00:00
TRACK 09 AUDIO
TITLE "Lovers After All"
PERFORMER "Keith Washington"
INDEX 00 04:43:37
FILE "09 - Lovers After All.wav" WAVE
INDEX 01 00:00:00
TRACK 10 AUDIO
TITLE "Closer"
PERFORMER "Keith Washington"
INDEX 00 04:47:18
FILE "10 - Closer.wav" WAVE
INDEX 01 00:00:00
 
1993 • You Make It Easy
Год издания: 1993
Издатель (лейбл): Qwest Records
Номер по каталогу: 45336-2
Продолжительность: 58:36
Треклист:
01. Let Me Make Love To You (Duet With Letitia Body) (5:40)
02. Stay In My Corner (5:11)
03. Don't Leave Me In The Dark (6:24)
04. You Always Gotta Go (4:55)
05. What It Takes (4:39)
06. We Need To Talk - Before I Let Go (6:04)
07. Trippin' (4:54)
08. Do What You Like (5:23)
09. Believe That (5:25)
10. No One (5:28)
11. You Make It Easy (4:35)
 
 
Лог создания рипа
Exact Audio Copy V1.0 beta 3 from 29. August 2011
EAC extraction logfile from 19. June 2015, 23:22
Keith Washington / You Make It Easy
Used drive : GENERIC CDRCB05 Adapter: 4 ID: 0
Read mode : Secure
Utilize accurate stream : Yes
Defeat audio cache : Yes
Make use of C2 pointers : No
Read offset correction : 102
Overread into Lead-In and Lead-Out : No
Fill up missing offset samples with silence : Yes
Delete leading and trailing silent blocks : No
Null samples used in CRC calculations : Yes
Used interface : Native Win32 interface for Win NT & 2000
Gap handling : Appended to previous track
Used output format : User Defined Encoder
Selected bitrate : 1024 kBit/s
Quality : High
Add ID3 tag : No
Command line compressor : C:\Program Files\FLAC\flac.exe
Additional command line options : -8 -V -T "ARTIST=%artist%" -T "TITLE=%title%" -T "ALBUM=%albumtitle%" -T "DATE=%year%" -T "TRACKNUMBER=%tracknr%" -T "GENRE=%genre%" -T "PERFORMER=%albuminterpret%" -T "COMPOSER=%composer%" %haslyrics%--tag-from-file=LYRICS="%lyricsfile%"%haslyrics% -T "ALBUMARTIST=%albumartist%" -T "DISCNUMBER=%cdnumber%" -T "TOTALDISCS=%totalcds%" -T "TOTALTRACKS=%numtracks%" -T "COMMENT=%comment%" %source% -o %dest%
TOC of the extracted CD
Track | Start | Length | Start sector | End sector
---------------------------------------------------------
1 | 0:00.00 | 5:39.38 | 0 | 25462
2 | 5:39.38 | 5:10.47 | 25463 | 48759
3 | 10:50.10 | 6:23.38 | 48760 | 77522
4 | 17:13.48 | 4:54.55 | 77523 | 99627
5 | 22:08.28 | 4:38.42 | 99628 | 120519
6 | 26:46.70 | 6:04.05 | 120520 | 147824
7 | 32:51.00 | 4:54.00 | 147825 | 169874
8 | 37:45.00 | 5:23.00 | 169875 | 194099
9 | 43:08.00 | 5:24.48 | 194100 | 218447
10 | 48:32.48 | 5:27.47 | 218448 | 243019
11 | 54:00.20 | 4:35.33 | 243020 | 263677
Track 1
Filename F:\MUSIC\0\POSTS\Keith Washington - You Make It Easy (1993)\01 - Let Me Make Love To You (Duet With Letitia Body).wav
Pre-gap length 0:00:02.00
Peak level 99.8 %
Extraction speed 2.5 X
Track quality 100.0 %
Test CRC 56296106
Copy CRC 56296106
Accurately ripped (confidence 7) [742C5B52] (AR v2)
Copy OK
Track 2
Filename F:\MUSIC\0\POSTS\Keith Washington - You Make It Easy (1993)\02 - Stay In My Corner.wav
Pre-gap length 0:00:00.48
Peak level 99.7 %
Extraction speed 2.7 X
Track quality 100.0 %
Test CRC 8DA2C645
Copy CRC 8DA2C645
Accurately ripped (confidence 7) [E690FFC5] (AR v2)
Copy OK
Track 3
Filename F:\MUSIC\0\POSTS\Keith Washington - You Make It Easy (1993)\03 - Don't Leave Me In The Dark.wav
Pre-gap length 0:00:01.20
Peak level 99.2 %
Extraction speed 3.3 X
Track quality 100.0 %
Test CRC 9A5461DE
Copy CRC 9A5461DE
Accurately ripped (confidence 7) [4BE04FFE] (AR v2)
Copy OK
Track 4
Filename F:\MUSIC\0\POSTS\Keith Washington - You Make It Easy (1993)\04 - You Always Gotta Go.wav
Peak level 100.0 %
Extraction speed 3.4 X
Track quality 100.0 %
Test CRC 5093E94E
Copy CRC 5093E94E
Accurately ripped (confidence 7) [B0A08C3B] (AR v2)
Copy OK
Track 5
Filename F:\MUSIC\0\POSTS\Keith Washington - You Make It Easy (1993)\05 - What It Takes.wav
Peak level 100.0 %
Extraction speed 3.2 X
Track quality 99.9 %
Test CRC C8156D51
Copy CRC C8156D51
Accurately ripped (confidence 7) [EB32E754] (AR v2)
Copy OK
Track 6
Filename F:\MUSIC\0\POSTS\Keith Washington - You Make It Easy (1993)\06 - We Need To Talk - Before I Let Go.wav
Peak level 100.0 %
Extraction speed 4.0 X
Track quality 100.0 %
Test CRC 7E77AB5D
Copy CRC 7E77AB5D
Accurately ripped (confidence 7) [4D310A22] (AR v2)
Copy OK
Track 7
Filename F:\MUSIC\0\POSTS\Keith Washington - You Make It Easy (1993)\07 - Trippin'.wav
Peak level 98.2 %
Extraction speed 4.1 X
Track quality 100.0 %
Test CRC FB744900
Copy CRC FB744900
Accurately ripped (confidence 7) [088F236C] (AR v2)
Copy OK
Track 8
Filename F:\MUSIC\0\POSTS\Keith Washington - You Make It Easy (1993)\08 - Do What You Like.wav
Peak level 100.0 %
Extraction speed 3.9 X
Track quality 99.9 %
Test CRC 9E7010E7
Copy CRC 9E7010E7
Accurately ripped (confidence 7) [93C6F56A] (AR v2)
Copy OK
Track 9
Filename F:\MUSIC\0\POSTS\Keith Washington - You Make It Easy (1993)\09 - Believe That.wav
Peak level 100.0 %
Extraction speed 4.5 X
Track quality 100.0 %
Test CRC 6428C286
Copy CRC 6428C286
Accurately ripped (confidence 7) [128FD81F] (AR v2)
Copy OK
Track 10
Filename F:\MUSIC\0\POSTS\Keith Washington - You Make It Easy (1993)\10 - No One.wav
Peak level 100.0 %
Extraction speed 4.7 X
Track quality 100.0 %
Test CRC DD5B77BA
Copy CRC DD5B77BA
Accurately ripped (confidence 7) [45F12932] (AR v2)
Copy OK
Track 11
Filename F:\MUSIC\0\POSTS\Keith Washington - You Make It Easy (1993)\11 - You Make It Easy.wav
Peak level 100.0 %
Extraction speed 4.8 X
Track quality 100.0 %
Test CRC C3E001E1
Copy CRC C3E001E1
Accurately ripped (confidence 7) [50BC38BB] (AR v2)
Copy OK
All tracks accurately ripped
No errors occurred
End of status report
==== Log checksum E1FCC1FAA9C879DAFDDB8D9730EB97603E988FA9B38136D1E680B7F149CF57C8 ====
 
Содержание индексной карты (.CUE)
REM GENRE Soul
REM DATE 1993
REM DISCID 860DBB0B
REM COMMENT "ExactAudioCopy v1.0b3"
PERFORMER "Keith Washington"
TITLE "You Make It Easy"
FILE "01 - Let Me Make Love To You (Duet With Letitia Body).wav" WAVE
TRACK 01 AUDIO
TITLE "Let Me Make Love To You (Duet With Letitia Body)"
PERFORMER "Keith Washington"
INDEX 01 00:00:00
TRACK 02 AUDIO
TITLE "Stay In My Corner"
PERFORMER "Keith Washington"
INDEX 00 05:38:65
FILE "02 - Stay In My Corner.wav" WAVE
INDEX 01 00:00:00
TRACK 03 AUDIO
TITLE "Don't Leave Me In The Dark"
PERFORMER "Keith Washington"
INDEX 00 05:09:27
FILE "03 - Don't Leave Me In The Dark.wav" WAVE
INDEX 01 00:00:00
FILE "04 - You Always Gotta Go.wav" WAVE
TRACK 04 AUDIO
TITLE "You Always Gotta Go"
PERFORMER "Keith Washington"
INDEX 01 00:00:00
FILE "05 - What It Takes.wav" WAVE
TRACK 05 AUDIO
TITLE "What It Takes"
PERFORMER "Keith Washington"
INDEX 01 00:00:00
FILE "06 - We Need To Talk - Before I Let Go.wav" WAVE
TRACK 06 AUDIO
TITLE "We Need To Talk - Before I Let Go"
PERFORMER "Keith Washington"
INDEX 01 00:00:00
FILE "07 - Trippin'.wav" WAVE
TRACK 07 AUDIO
TITLE "Trippin'"
PERFORMER "Keith Washington"
INDEX 01 00:00:00
FILE "08 - Do What You Like.wav" WAVE
TRACK 08 AUDIO
TITLE "Do What You Like"
PERFORMER "Keith Washington"
INDEX 01 00:00:00
FILE "09 - Believe That.wav" WAVE
TRACK 09 AUDIO
TITLE "Believe That"
PERFORMER "Keith Washington"
INDEX 01 00:00:00
FILE "10 - No One.wav" WAVE
TRACK 10 AUDIO
TITLE "No One"
PERFORMER "Keith Washington"
INDEX 01 00:00:00
FILE "11 - You Make It Easy.wav" WAVE
TRACK 11 AUDIO
TITLE "You Make It Easy"
PERFORMER "Keith Washington"
INDEX 01 00:00:00
 
1998 • KW
Год издания: 1998
Издатель (лейбл): MCA Records
Номер по каталогу: MCD 11744
Продолжительность: 63:40
Треклист:
01. I Warned You (5:13)
02. No Matter (4:36)
03. I Don't Mind (4:20)
04. Tell Me (Are You With It) (4:59)
05. Bring It On (4:30)
06. I Love You (duet with Chante Moore) (5:57)
07. You Sure Love To Ball (5:10)
08. Long Ago (4:35)
09. I Can't Put You Down (5:47)
10. You Let Me Down (4:11)
11. Smile (4:46)
12. Only You (3:56)
13. Bring It On (Remix) (5:40)
 
 
Лог создания рипа
Exact Audio Copy V1.0 beta 3 from 29. August 2011
EAC extraction logfile from 30. June 2015, 17:04
Keith Washington / KW
Used drive : GENERIC CDRCB05 Adapter: 4 ID: 0
Read mode : Secure
Utilize accurate stream : Yes
Defeat audio cache : Yes
Make use of C2 pointers : No
Read offset correction : 102
Overread into Lead-In and Lead-Out : No
Fill up missing offset samples with silence : Yes
Delete leading and trailing silent blocks : No
Null samples used in CRC calculations : Yes
Used interface : Native Win32 interface for Win NT & 2000
Gap handling : Appended to previous track
Used output format : User Defined Encoder
Selected bitrate : 1024 kBit/s
Quality : High
Add ID3 tag : No
Command line compressor : C:\Program Files\FLAC\flac.exe
Additional command line options : -8 -V -T "ARTIST=%artist%" -T "TITLE=%title%" -T "ALBUM=%albumtitle%" -T "DATE=%year%" -T "TRACKNUMBER=%tracknr%" -T "GENRE=%genre%" -T "PERFORMER=%albuminterpret%" -T "COMPOSER=%composer%" %haslyrics%--tag-from-file=LYRICS="%lyricsfile%"%haslyrics% -T "ALBUMARTIST=%albumartist%" -T "DISCNUMBER=%cdnumber%" -T "TOTALDISCS=%totalcds%" -T "TOTALTRACKS=%numtracks%" -T "COMMENT=%comment%" %source% -o %dest%
TOC of the extracted CD
Track | Start | Length | Start sector | End sector
---------------------------------------------------------
1 | 0:00.00 | 5:13.10 | 0 | 23484
2 | 5:13.10 | 4:35.40 | 23485 | 44149
3 | 9:48.50 | 4:20.35 | 44150 | 63684
4 | 14:09.10 | 4:58.62 | 63685 | 86096
5 | 19:07.72 | 4:30.23 | 86097 | 106369
6 | 23:38.20 | 5:57.35 | 106370 | 133179
7 | 29:35.55 | 5:10.05 | 133180 | 156434
8 | 34:45.60 | 4:34.55 | 156435 | 177039
9 | 39:20.40 | 5:47.32 | 177040 | 203096
10 | 45:07.72 | 4:10.45 | 203097 | 221891
11 | 49:18.42 | 4:45.40 | 221892 | 243306
12 | 54:04.07 | 3:55.65 | 243307 | 260996
13 | 57:59.72 | 5:40.08 | 260997 | 286504
Track 1
Filename F:\MUSIC\0\POSTS\Keith Washington - K W (1998)\01 - I Warned You.wav
Pre-gap length 0:00:02.00
Peak level 94.4 %
Extraction speed 2.5 X
Track quality 100.0 %
Test CRC E8BC2406
Copy CRC E8BC2406
Accurately ripped (confidence 1) [A5A52592] (AR v2)
Copy OK
Track 2
Filename F:\MUSIC\0\POSTS\Keith Washington - K W (1998)\02 - No Matter.wav
Peak level 94.4 %
Extraction speed 2.4 X
Track quality 99.9 %
Test CRC 10D12CBA
Copy CRC 10D12CBA
Accurately ripped (confidence 1) [BEB54EBF] (AR v2)
Copy OK
Track 3
Filename F:\MUSIC\0\POSTS\Keith Washington - K W (1998)\03 - I Don't Mind.wav
Peak level 94.4 %
Extraction speed 2.9 X
Track quality 100.0 %
Test CRC 87AD271A
Copy CRC 87AD271A
Accurately ripped (confidence 1) [D58D16C4] (AR v2)
Copy OK
Track 4
Filename F:\MUSIC\0\POSTS\Keith Washington - K W (1998)\04 - Tell Me (Are You With It).wav
Peak level 92.2 %
Extraction speed 3.2 X
Track quality 100.0 %
Test CRC 30B14427
Copy CRC 30B14427
Accurately ripped (confidence 1) [F20CB2AD] (AR v2)
Copy OK
Track 5
Filename F:\MUSIC\0\POSTS\Keith Washington - K W (1998)\05 - Bring It On.wav
Peak level 94.8 %
Extraction speed 3.2 X
Track quality 100.0 %
Test CRC B52B72B7
Copy CRC B52B72B7
Accurately ripped (confidence 1) [0E0CEC01] (AR v2)
Copy OK
Track 6
Filename F:\MUSIC\0\POSTS\Keith Washington - K W (1998)\06 - I Love You (duet with Chante Moore).wav
Peak level 94.4 %
Extraction speed 3.3 X
Track quality 100.0 %
Test CRC 7DB8492B
Copy CRC 7DB8492B
Accurately ripped (confidence 1) [3C0F34B6] (AR v2)
Copy OK
Track 7
Filename F:\MUSIC\0\POSTS\Keith Washington - K W (1998)\07 - You Sure Love To Ball.wav
Peak level 94.4 %
Extraction speed 3.3 X
Track quality 99.9 %
Test CRC 70433000
Copy CRC 70433000
Accurately ripped (confidence 1) [0B145E49] (AR v2)
Copy OK
Track 8
Filename F:\MUSIC\0\POSTS\Keith Washington - K W (1998)\08 - Long Ago.wav
Peak level 94.4 %
Extraction speed 3.6 X
Track quality 100.0 %
Test CRC 25D0A767
Copy CRC 25D0A767
Accurately ripped (confidence 1) [2371F100] (AR v2)
Copy OK
Track 9
Filename F:\MUSIC\0\POSTS\Keith Washington - K W (1998)\09 - I Can't Put You Down.wav
Peak level 100.0 %
Extraction speed 4.3 X
Track quality 100.0 %
Test CRC DD20FB1B
Copy CRC DD20FB1B
Accurately ripped (confidence 1) [215EA4A1] (AR v2)
Copy OK
Track 10
Filename F:\MUSIC\0\POSTS\Keith Washington - K W (1998)\10 - You Let Me Down.wav
Peak level 97.7 %
Extraction speed 4.3 X
Track quality 100.0 %
Test CRC 1E2CDF36
Copy CRC 1E2CDF36
Accurately ripped (confidence 1) [E9C52100] (AR v2)
Copy OK
Track 11
Filename F:\MUSIC\0\POSTS\Keith Washington - K W (1998)\11 - Smile.wav
Peak level 92.2 %
Extraction speed 3.9 X
Track quality 99.9 %
Test CRC 16FE6D82
Copy CRC 16FE6D82
Accurately ripped (confidence 1) [FCA5379C] (AR v2)
Copy OK
Track 12
Filename F:\MUSIC\0\POSTS\Keith Washington - K W (1998)\12 - Only You.wav
Peak level 94.4 %
Extraction speed 4.4 X
Track quality 100.0 %
Test CRC 640BC49C
Copy CRC 640BC49C
Accurately ripped (confidence 1) [F591C15D] (AR v2)
Copy OK
Track 13
Filename F:\MUSIC\0\POSTS\Keith Washington - K W (1998)\13 - Bring It On (Remix).wav
Peak level 92.2 %
Extraction speed 4.7 X
Track quality 100.0 %
Test CRC 15B5A539
Copy CRC 15B5A539
Accurately ripped (confidence 1) [AD96BDD2] (AR v2)
Copy OK
All tracks accurately ripped
No errors occurred
End of status report
==== Log checksum 55ABFB8AB2E8E350AAB7057C1273600F3073B9A65BC22E92834175778B04018F ====
 
Содержание индексной карты (.CUE)
REM GENRE R&B
REM DATE 1998
REM DISCID B30EEC0D
REM COMMENT "ExactAudioCopy v1.0b3"
PERFORMER "Keith Washington"
TITLE "KW"
FILE "01 - I Warned You.wav" WAVE
TRACK 01 AUDIO
TITLE "I Warned You"
PERFORMER "Keith Washington"
INDEX 01 00:00:00
FILE "02 - No Matter.wav" WAVE
TRACK 02 AUDIO
TITLE "No Matter"
PERFORMER "Keith Washington"
INDEX 01 00:00:00
FILE "03 - I Don't Mind.wav" WAVE
TRACK 03 AUDIO
TITLE "I Don't Mind"
PERFORMER "Keith Washington"
INDEX 01 00:00:00
FILE "04 - Tell Me (Are You With It).wav" WAVE
TRACK 04 AUDIO
TITLE "Tell Me (Are You With It)"
PERFORMER "Keith Washington"
INDEX 01 00:00:00
FILE "05 - Bring It On.wav" WAVE
TRACK 05 AUDIO
TITLE "Bring It On"
PERFORMER "Keith Washington"
INDEX 01 00:00:00
FILE "06 - I Love You (duet with Chante Moore).wav" WAVE
TRACK 06 AUDIO
TITLE "I Love You (duet with Chante Moore)"
PERFORMER "Keith Washington"
INDEX 01 00:00:00
FILE "07 - You Sure Love To Ball.wav" WAVE
TRACK 07 AUDIO
TITLE "You Sure Love To Ball"
PERFORMER "Keith Washington"
INDEX 01 00:00:00
FILE "08 - Long Ago.wav" WAVE
TRACK 08 AUDIO
TITLE "Long Ago"
PERFORMER "Keith Washington"
INDEX 01 00:00:00
FILE "09 - I Can't Put You Down.wav" WAVE
TRACK 09 AUDIO
TITLE "I Can't Put You Down"
PERFORMER "Keith Washington"
INDEX 01 00:00:00
FILE "10 - You Let Me Down.wav" WAVE
TRACK 10 AUDIO
TITLE "You Let Me Down"
PERFORMER "Keith Washington"
INDEX 01 00:00:00
FILE "11 - Smile.wav" WAVE
TRACK 11 AUDIO
TITLE "Smile"
PERFORMER "Keith Washington"
INDEX 01 00:00:00
FILE "12 - Only You.wav" WAVE
TRACK 12 AUDIO
TITLE "Only You"
PERFORMER "Keith Washington"
INDEX 01 00:00:00
FILE "13 - Bring It On (Remix).wav" WAVE
TRACK 13 AUDIO
TITLE "Bring It On (Remix)"
PERFORMER "Keith Washington"
INDEX 01 00:00:00
Приватный:
Нет (DHT включён)
Размер:
1.66 Гб (1,786,647,183 байт) » файлов: 78
Участники:
12 раздают, 3 качают (15 участников всего)
Внешние участники:
1 раздают, 0 качают (1 участников всего) [ Обновить ]
Скорость:
761.57 Кб/c 0/c
No seeders - write a personal message to user M0p94ok. Нет сидеров - пишите личное сообщение пользователю M0p94ok.
06:51
88
Нет комментариев. Ваш будет первым!