Поиск

(Funk, Soul) [CD] Curtis Mayfield - The Very Best Of (1998) - 2007, FLAC (tracks+.cue), lossless

(Funk, Soul) [CD] Curtis Mayfield - The Very Best Of (1998) - 2007, FLAC (tracks+.cue), lossless
Треклист:
Curtis Mayfield - The Very Best Of (1998)
Жанр: Funk, Soul
Носитель: CD
Год издания: 2007
Издатель (лейбл): Beechwood Music
Barcode: 5 016553 770128
Аудиокодек: FLAC (*.flac)
Тип рипа: tracks+.cue
Битрейт аудио: lossless
Продолжительность: 74:56
Rip by oan
Наличие сканов в содержимом раздачи: нет
Треклист:
01. Move On Up (8:49)
02. Get Down (5:41)
03. Give It Up (3:42)
04. Little Child Runnin' Wild (5:24)
05. Pusherman (5:03)
06. Freddie's Dead (5:26)
07. Give Me Your Love (4:17)
08. Eddie You Should Know Better (2:18)
09. No Thin On Me (4:54)
10. Superfly (3:54)
11. People Get Ready (3:56)
12. Right On For The Darkness (7:30)
13. (Don't Worry) If There's A Hell Below We're All Gonna Go (7:07)
14. You're So Good To Me (6:55)
 
 
Лог создания рипа
Exact Audio Copy V1.0 beta 3 from 29. August 2011
EAC extraction logfile from 8. January 2015, 3:39
Curtis Mayfield / The Very Best Of
Used drive : HL-DT-STBD-RE GGW-H20L Adapter: 0 ID: 0
Read mode : Secure
Utilize accurate stream : Yes
Defeat audio cache : Yes
Make use of C2 pointers : No
Read offset correction : 667
Overread into Lead-In and Lead-Out : No
Fill up missing offset samples with silence : Yes
Delete leading and trailing silent blocks : No
Null samples used in CRC calculations : Yes
Used interface : Native Win32 interface for Win NT & 2000
Gap handling : Appended to previous track
Used output format : User Defined Encoder
Selected bitrate : 1024 kBit/s
Quality : High
Add ID3 tag : No
Command line compressor : C:\Program Files (x86)\Exact Audio Copy\Flac\flac.exe
Additional command line options : -8 -V -T "ARTIST=%artist%" -T "TITLE=%title%" -T "ALBUM=%albumtitle%" -T "DATE=%year%" -T "TRACKNUMBER=%tracknr%" -T "GENRE=%genre%" -T "PERFORMER=%albuminterpret%" -T "COMPOSER=%composer%" %haslyrics%--tag-from-file=LYRICS="%lyricsfile%"%haslyrics% -T "ALBUMARTIST=%albumartist%" -T "ALBUM ARTIST=%albumartist%" -T "DISCNUMBER=%cdnumber%" -T "TOTALDISCS=%totalcds%" -T "TOTALTRACKS=%numtracks%" -T "COMMENT=EAC V1.0 beta 3, Secure Mode, Test & Copy, AccurateRip, FLAC - 8 - oneanight oan" %source%
TOC of the extracted CD
Track | Start | Length | Start sector | End sector
---------------------------------------------------------
1 | 0:00.00 | 8:48.45 | 0 | 39644
2 | 8:48.45 | 5:40.55 | 39645 | 65199
3 | 14:29.25 | 3:41.53 | 65200 | 81827
4 | 18:11.03 | 5:23.51 | 81828 | 106103
5 | 23:34.54 | 5:02.73 | 106104 | 128826
6 | 28:37.52 | 5:26.29 | 128827 | 153305
7 | 34:04.06 | 4:16.71 | 153306 | 172576
8 | 38:21.02 | 2:17.73 | 172577 | 182924
9 | 40:39.00 | 4:54.15 | 182925 | 204989
10 | 45:33.15 | 3:54.25 | 204990 | 222564
11 | 49:27.40 | 3:56.37 | 222565 | 240301
12 | 53:24.02 | 7:29.60 | 240302 | 274036
13 | 60:53.62 | 7:06.62 | 274037 | 306048
14 | 68:00.49 | 6:54.66 | 306049 | 337164
Track 1
Filename C:\oneanight\01 - Move On Up.wav
Pre-gap length 0:00:02.00
Peak level 83.5 %
Extraction speed 5.3 X
Track quality 100.0 %
Test CRC 5DFC5916
Copy CRC 5DFC5916
Accurately ripped (confidence 10) [8A040103] (AR v2)
Copy OK
Track 2
Filename C:\oneanight\02 - Get Down.wav
Pre-gap length 0:00:01.74
Peak level 91.1 %
Extraction speed 5.8 X
Track quality 100.0 %
Test CRC 965F7EF1
Copy CRC 965F7EF1
Accurately ripped (confidence 10) [49870ADE] (AR v2)
Copy OK
Track 3
Filename C:\oneanight\03 - Give It Up.wav
Pre-gap length 0:00:01.73
Peak level 97.1 %
Extraction speed 5.7 X
Track quality 100.0 %
Test CRC BCEB12B5
Copy CRC BCEB12B5
Accurately ripped (confidence 10) [07C6BB33] (AR v2)
Copy OK
Track 4
Filename C:\oneanight\04 - Little Child Runnin' Wild.wav
Pre-gap length 0:00:01.73
Peak level 88.5 %
Extraction speed 5.6 X
Track quality 99.9 %
Test CRC BA171AAC
Copy CRC BA171AAC
Accurately ripped (confidence 9) [A955D932] (AR v2)
Copy OK
Track 5
Filename C:\oneanight\05 - Pusherman.wav
Pre-gap length 0:00:01.73
Peak level 99.6 %
Extraction speed 6.8 X
Track quality 100.0 %
Test CRC 29525FE1
Copy CRC 29525FE1
Accurately ripped (confidence 10) [909A5475] (AR v2)
Copy OK
Track 6
Filename C:\oneanight\06 - Freddie's Dead.wav
Pre-gap length 0:00:01.73
Peak level 74.7 %
Extraction speed 7.3 X
Track quality 100.0 %
Test CRC ED914064
Copy CRC ED914064
Accurately ripped (confidence 9) [6FF4B16C] (AR v2)
Copy OK
Track 7
Filename C:\oneanight\07 - Give Me Your Love.wav
Pre-gap length 0:00:01.72
Peak level 93.7 %
Extraction speed 6.2 X
Track quality 99.9 %
Test CRC DA710EC9
Copy CRC DA710EC9
Accurately ripped (confidence 10) [EF0E1314] (AR v2)
Copy OK
Track 8
Filename C:\oneanight\08 - Eddie You Should Know Better.wav
Pre-gap length 0:00:01.73
Peak level 93.0 %
Extraction speed 6.7 X
Track quality 100.0 %
Test CRC 75C57E29
Copy CRC 75C57E29
Accurately ripped (confidence 10) [BB538D8C] (AR v2)
Copy OK
Track 9
Filename C:\oneanight\09 - No Thin On Me.wav
Pre-gap length 0:00:01.73
Peak level 79.0 %
Extraction speed 8.0 X
Track quality 100.0 %
Test CRC 1C93C059
Copy CRC 1C93C059
Accurately ripped (confidence 9) [21F5FC70] (AR v2)
Copy OK
Track 10
Filename C:\oneanight\10 - Superfly.wav
Pre-gap length 0:00:01.73
Peak level 75.5 %
Extraction speed 7.8 X
Track quality 100.0 %
Test CRC BF36360A
Copy CRC BF36360A
Accurately ripped (confidence 9) [CCDDB345] (AR v2)
Copy OK
Track 11
Filename C:\oneanight\11 - People Get Ready.wav
Pre-gap length 0:00:01.73
Peak level 78.6 %
Extraction speed 8.2 X
Track quality 100.0 %
Test CRC 9DF1F47C
Copy CRC 9DF1F47C
Accurately ripped (confidence 10) [0DAB818A] (AR v2)
Copy OK
Track 12
Filename C:\oneanight\12 - Right On For The Darkness.wav
Pre-gap length 0:00:01.73
Peak level 93.3 %
Extraction speed 9.0 X
Track quality 100.0 %
Test CRC 6E3FAC83
Copy CRC 6E3FAC83
Accurately ripped (confidence 9) [C383E627] (AR v2)
Copy OK
Track 13
Filename C:\oneanight\13 - (Don't Worry) If There's A Hell Below We're All Gonna Go.wav
Pre-gap length 0:00:01.72
Peak level 70.5 %
Extraction speed 9.3 X
Track quality 100.0 %
Test CRC 246C7F13
Copy CRC 246C7F13
Accurately ripped (confidence 10) [6E848DC1] (AR v2)
Copy OK
Track 14
Filename C:\oneanight\14 - You're So Good To Me.wav
Pre-gap length 0:00:01.69
Peak level 100.0 %
Extraction speed 9.8 X
Track quality 100.0 %
Test CRC 2A733839
Copy CRC 2A733839
Accurately ripped (confidence 9) [BC9A7554] (AR v2)
Copy OK
All tracks accurately ripped
No errors occurred
End of status report
==== Log checksum 43F77853EA4F6D5FE05AE275425E4585571199A4045C2815B2E9E02B8D03B992 ====
 
Содержание индексной карты (.CUE)
REM GENRE "Funk / Soul / Jazz"
REM DATE 1998
REM DISCID BB118F0E
REM COMMENT "ExactAudioCopy v1.0b3"
PERFORMER "Curtis Mayfield"
TITLE "The Very Best Of"
FILE "01 - Move On Up.flac" WAVE
TRACK 01 AUDIO
TITLE "Move On Up"
PERFORMER "Curtis Mayfield"
INDEX 01 00:00:00
TRACK 02 AUDIO
TITLE "Get Down"
PERFORMER "Curtis Mayfield"
INDEX 00 08:46:64
FILE "02 - Get Down.flac" WAVE
INDEX 01 00:00:00
TRACK 03 AUDIO
TITLE "Give It Up"
PERFORMER "Curtis Mayfield"
INDEX 00 05:39:00
FILE "03 - Give It Up.flac" WAVE
INDEX 01 00:00:00
TRACK 04 AUDIO
TITLE "Little Child Runnin' Wild"
PERFORMER "Curtis Mayfield"
INDEX 00 03:39:73
FILE "04 - Little Child Runnin' Wild.flac" WAVE
INDEX 01 00:00:00
TRACK 05 AUDIO
TITLE "Pusherman"
PERFORMER "Curtis Mayfield"
INDEX 00 05:21:71
FILE "05 - Pusherman.flac" WAVE
INDEX 01 00:00:00
TRACK 06 AUDIO
TITLE "Freddie's Dead"
PERFORMER "Curtis Mayfield"
INDEX 00 05:01:18
FILE "06 - Freddie's Dead.flac" WAVE
INDEX 01 00:00:00
TRACK 07 AUDIO
TITLE "Give Me Your Love"
PERFORMER "Curtis Mayfield"
INDEX 00 05:24:50
FILE "07 - Give Me Your Love.flac" WAVE
INDEX 01 00:00:00
TRACK 08 AUDIO
TITLE "Eddie You Should Know Better"
PERFORMER "Curtis Mayfield"
INDEX 00 04:15:16
FILE "08 - Eddie You Should Know Better.flac" WAVE
INDEX 01 00:00:00
TRACK 09 AUDIO
TITLE "No Thin On Me"
PERFORMER "Curtis Mayfield"
INDEX 00 02:16:18
FILE "09 - No Thin On Me.flac" WAVE
INDEX 01 00:00:00
TRACK 10 AUDIO
TITLE "Superfly"
PERFORMER "Curtis Mayfield"
INDEX 00 04:52:35
FILE "10 - Superfly.flac" WAVE
INDEX 01 00:00:00
TRACK 11 AUDIO
TITLE "People Get Ready"
PERFORMER "Curtis Mayfield"
INDEX 00 03:52:45
FILE "11 - People Get Ready.flac" WAVE
INDEX 01 00:00:00
TRACK 12 AUDIO
TITLE "Right On For The Darkness"
PERFORMER "Curtis Mayfield"
INDEX 00 03:54:57
FILE "12 - Right On For The Darkness.flac" WAVE
INDEX 01 00:00:00
TRACK 13 AUDIO
TITLE "(Don't Worry) If There's A Hell Below We're All Gonna Go"
PERFORMER "Curtis Mayfield"
INDEX 00 07:28:06
FILE "13 - (Don't Worry) If There's A Hell Below We're All Gonna Go.flac" WAVE
INDEX 01 00:00:00
TRACK 14 AUDIO
TITLE "You're So Good To Me"
PERFORMER "Curtis Mayfield"
INDEX 00 07:05:10
FILE "14 - You're So Good To Me.flac" WAVE
INDEX 01 00:00:00
Приватный:
Нет (DHT включён)
Размер:
422.87 Мб (443,408,328 байт) » файлов: 21
Участники:
0 раздают, 0 качают (0 участников всего)
Внешние участники:
9 раздают, 3 качают (12 участников всего) [ Обновить ]
Есть вопросы - пишите личное сообщение пользователю M0p94ok.
06:50
85
Нет комментариев. Ваш будет первым!