Поиск

(Soul, R&B) [CD] Shirley Brown - Fire & Ice - 1989, FLAC (tracks+.cue), lossless

(Soul, R&B) [CD] Shirley Brown - Fire & Ice - 1989, FLAC (tracks+.cue), lossless
Треклист:
Shirley Brown - Fire & Ice
Жанр: Soul, R&B
Носитель: CD
Год издания: 1989
Издатель (лейбл): Malaco Records
Номер по каталогу: MAL 7451CD
Аудиокодек: FLAC (*.flac)
Тип рипа: tracks+.cue
Битрейт аудио: lossless
Продолжительность: 47:08
Rip by JET 1
Наличие сканов в содержимом раздачи: да
Треклист:
01. What Cha Gonna Do When The Money Runs Out (4:24)
02. Ain't Nothin Like The Lovin We Got (4:46)
03. Tell Me Something Good (4:24)
04. Silent Treatment (4:32)
05. King Size Love (4:05)
06. If this Is Goodbye (4:45)
07. Take Me To Your Heart (4:22)
08. Sowed To The Wind (5:23)
09. I Wonder Where The Love Has Gone (5:12)
10. Anticipation (5:15)
 
 
Лог создания рипа
Exact Audio Copy V1.0 beta 3 from 29. August 2011
EAC extraction logfile from 30. June 2015, 2:18
Shriley Brown / Fire & Ice
Used drive : GENERIC CDRCB05 Adapter: 4 ID: 0
Read mode : Secure
Utilize accurate stream : Yes
Defeat audio cache : Yes
Make use of C2 pointers : No
Read offset correction : 102
Overread into Lead-In and Lead-Out : No
Fill up missing offset samples with silence : Yes
Delete leading and trailing silent blocks : No
Null samples used in CRC calculations : Yes
Used interface : Native Win32 interface for Win NT & 2000
Gap handling : Appended to previous track
Used output format : User Defined Encoder
Selected bitrate : 1024 kBit/s
Quality : High
Add ID3 tag : No
Command line compressor : C:\Program Files\FLAC\flac.exe
Additional command line options : -8 -V -T "ARTIST=%artist%" -T "TITLE=%title%" -T "ALBUM=%albumtitle%" -T "DATE=%year%" -T "TRACKNUMBER=%tracknr%" -T "GENRE=%genre%" -T "PERFORMER=%albuminterpret%" -T "COMPOSER=%composer%" %haslyrics%--tag-from-file=LYRICS="%lyricsfile%"%haslyrics% -T "ALBUMARTIST=%albumartist%" -T "DISCNUMBER=%cdnumber%" -T "TOTALDISCS=%totalcds%" -T "TOTALTRACKS=%numtracks%" -T "COMMENT=%comment%" %source% -o %dest%
TOC of the extracted CD
Track | Start | Length | Start sector | End sector
---------------------------------------------------------
1 | 0:00.32 | 4:24.10 | 32 | 19841
2 | 4:24.42 | 4:46.15 | 19842 | 41306
3 | 9:10.57 | 4:23.70 | 41307 | 61101
4 | 13:34.52 | 4:31.73 | 61102 | 81499
5 | 18:06.50 | 4:05.00 | 81500 | 99874
6 | 22:11.50 | 4:44.70 | 99875 | 121244
7 | 26:56.45 | 4:22.00 | 121245 | 140894
8 | 31:18.45 | 5:22.62 | 140895 | 165106
9 | 36:41.32 | 5:12.00 | 165107 | 188506
10 | 41:53.32 | 5:15.00 | 188507 | 212131
Track 1
Filename F:\MUSIC\0\POSTS\Shirley Brown - Fire & Ice (1989)\01 - What Cha Gonna Do When The money Runs Out.wav
Pre-gap length 0:00:02.32
Peak level 100.0 %
Extraction speed 2.4 X
Track quality 100.0 %
Test CRC E9DF896D
Copy CRC E9DF896D
Cannot be verified as accurate (confidence 1) [C81F945A], AccurateRip returned [9CD99C28] (AR v2)
Copy OK
Track 2
Filename F:\MUSIC\0\POSTS\Shirley Brown - Fire & Ice (1989)\02 - Ain't Nothin Like The Lovin We Got.wav
Pre-gap length 0:00:02.10
Peak level 100.0 %
Extraction speed 2.7 X
Track quality 100.0 %
Test CRC 35CD7BCB
Copy CRC 35CD7BCB
Cannot be verified as accurate (confidence 1) [1040E6C8], AccurateRip returned [C0451F37] (AR v2)
Copy OK
Track 3
Filename F:\MUSIC\0\POSTS\Shirley Brown - Fire & Ice (1989)\03 - Tell Me Something Good.wav
Pre-gap length 0:00:02.12
Peak level 100.0 %
Extraction speed 2.6 X
Track quality 99.9 %
Test CRC F8B3E8C1
Copy CRC F8B3E8C1
Cannot be verified as accurate (confidence 1) [B892047A], AccurateRip returned [8EC16C64] (AR v2)
Copy OK
Track 4
Filename F:\MUSIC\0\POSTS\Shirley Brown - Fire & Ice (1989)\04 - Silent Treatment.wav
Pre-gap length 0:00:01.20
Peak level 84.9 %
Extraction speed 3.2 X
Track quality 100.0 %
Test CRC 283FD4C1
Copy CRC 283FD4C1
Cannot be verified as accurate (confidence 1) [77D4BA7F], AccurateRip returned [9F531606] (AR v2)
Copy OK
Track 5
Filename F:\MUSIC\0\POSTS\Shirley Brown - Fire & Ice (1989)\05 - King Size Love.wav
Pre-gap length 0:00:01.05
Peak level 95.5 %
Extraction speed 2.8 X
Track quality 99.9 %
Test CRC 4495ADCE
Copy CRC 4495ADCE
Cannot be verified as accurate (confidence 1) [8F3F1C60], AccurateRip returned [FB2BC5B1] (AR v2)
Copy OK
Track 6
Filename F:\MUSIC\0\POSTS\Shirley Brown - Fire & Ice (1989)\06 - If this Is Goodbye.wav
Pre-gap length 0:00:01.68
Peak level 88.8 %
Extraction speed 3.5 X
Track quality 100.0 %
Test CRC A0198022
Copy CRC A0198022
Cannot be verified as accurate (confidence 1) [107A86F2], AccurateRip returned [174D1A94] (AR v2)
Copy OK
Track 7
Filename F:\MUSIC\0\POSTS\Shirley Brown - Fire & Ice (1989)\07 - Take Me To Your Heart.wav
Pre-gap length 0:00:01.13
Peak level 98.2 %
Extraction speed 3.6 X
Track quality 100.0 %
Test CRC 4F898924
Copy CRC 4F898924
Cannot be verified as accurate (confidence 1) [148B8AE7], AccurateRip returned [23D1351A] (AR v2)
Copy OK
Track 8
Filename F:\MUSIC\0\POSTS\Shirley Brown - Fire & Ice (1989)\08 - Sowed To The Wind.wav
Pre-gap length 0:00:02.20
Peak level 100.0 %
Extraction speed 3.9 X
Track quality 100.0 %
Test CRC 9293575D
Copy CRC 9293575D
Cannot be verified as accurate (confidence 1) [5EB8445A], AccurateRip returned [78BA981D] (AR v2)
Copy OK
Track 9
Filename F:\MUSIC\0\POSTS\Shirley Brown - Fire & Ice (1989)\09 - I Wonder Where The Love Has Gone.wav
Pre-gap length 0:00:02.37
Peak level 99.5 %
Extraction speed 4.1 X
Track quality 100.0 %
Test CRC 82F476BE
Copy CRC 82F476BE
Cannot be verified as accurate (confidence 1) [8A86BB86], AccurateRip returned [55688078] (AR v2)
Copy OK
Track 10
Filename F:\MUSIC\0\POSTS\Shirley Brown - Fire & Ice (1989)\10 - Anticipation.wav
Pre-gap length 0:00:02.37
Peak level 92.8 %
Extraction speed 4.3 X
Track quality 100.0 %
Test CRC 47B74A59
Copy CRC 47B74A59
Cannot be verified as accurate (confidence 1) [0ECD6FEF], AccurateRip returned [59987A32] (AR v2)
Copy OK
No tracks could be verified as accurate
You may have a different pressing from the one(s) in the database
No errors occurred
End of status report
==== Log checksum D7B0E4139A26185130C67C4FAFBDCDBA99ED75C4B5E02252EC92E0D64F2A0A27 ====
 
Содержание индексной карты (.CUE)
REM GENRE Soul
REM DATE 1989
REM DISCID 7B0B0C0A
REM COMMENT "ExactAudioCopy v1.0b3"
PERFORMER "Shriley Brown"
TITLE "Fire & Ice"
FILE "01 - What Cha Gonna Do When The Money Runs Out.wav" WAVE
TRACK 01 AUDIO
TITLE "What Cha Gonna Do When The Money Runs Out"
PERFORMER "Shriley Brown"
PREGAP 00:00:32
INDEX 01 00:00:00
TRACK 02 AUDIO
TITLE "Ain't Nothin Like The Lovin We Got"
PERFORMER "Shriley Brown"
INDEX 00 04:22:00
FILE "02 - Ain't Nothin Like The Lovin We Got.wav" WAVE
INDEX 01 00:00:00
TRACK 03 AUDIO
TITLE "Tell Me Something Good"
PERFORMER "Shriley Brown"
INDEX 00 04:44:03
FILE "03 - Tell Me Something Good.wav" WAVE
INDEX 01 00:00:00
TRACK 04 AUDIO
TITLE "Silent Treatment"
PERFORMER "Shriley Brown"
INDEX 00 04:22:50
FILE "04 - Silent Treatment.wav" WAVE
INDEX 01 00:00:00
TRACK 05 AUDIO
TITLE "King Size Love"
PERFORMER "Shriley Brown"
INDEX 00 04:30:68
FILE "05 - King Size Love.wav" WAVE
INDEX 01 00:00:00
TRACK 06 AUDIO
TITLE "If this Is Goodbye"
PERFORMER "Shriley Brown"
INDEX 00 04:03:07
FILE "06 - If this Is Goodbye.wav" WAVE
INDEX 01 00:00:00
TRACK 07 AUDIO
TITLE "Take Me To Your Heart"
PERFORMER "Shriley Brown"
INDEX 00 04:43:57
FILE "07 - Take Me To Your Heart.wav" WAVE
INDEX 01 00:00:00
TRACK 08 AUDIO
TITLE "Sowed To The Wind"
PERFORMER "Shriley Brown"
INDEX 00 04:19:55
FILE "08 - Sowed To The Wind.wav" WAVE
INDEX 01 00:00:00
TRACK 09 AUDIO
TITLE "I Wonder Where The Love Has Gone"
PERFORMER "Shriley Brown"
INDEX 00 05:20:25
FILE "09 - I Wonder Where The Love Has Gone.wav" WAVE
INDEX 01 00:00:00
TRACK 10 AUDIO
TITLE "Anticipation"
PERFORMER "Shriley Brown"
INDEX 00 05:09:38
FILE "10 - Anticipation.wav" WAVE
INDEX 01 00:00:00
Приватный:
Нет (DHT включён)
Размер:
312.83 Мб (328,022,818 байт) » файлов: 19
Участники:
0 раздают, 0 качают (0 участников всего)
Внешние участники:
3 раздают, 1 качают (4 участников всего) [ Обновить ]
Есть вопросы - пишите личное сообщение пользователю M0p94ok.
06:50
80
Нет комментариев. Ваш будет первым!