Поиск

(Funk, Soul) [CD] Rufus featuring Chaka Khan - Ask Rufus (1977) - 2015, FLAC (tracks+.cue), lossless

(Funk, Soul) [CD] Rufus featuring Chaka Khan - Ask Rufus (1977) - 2015, FLAC (tracks+.cue), lossless
Треклист:
Rufus featuring Chaka Khan - Ask Rufus (1977) Жанр: Funk, Soul
Носитель: CD
Страна-производитель диска (релиза): Japan
Год издания: 2015
Издатель (лейбл): Geffen Records
Номер по каталогу: UICY-77165
Аудиокодек: FLAC (*.flac)
Тип рипа: tracks+.cue
Битрейт аудио: lossless
Продолжительность: 37:42
Rip by JET 1
Наличие сканов в содержимом раздачи: да
Треклист:
01. At Midnight (My Love Will Lift You Up) (4:21)
02. Close The Door (3:26)
03. Medley: Slow Screw Against The Wall / A Flat Fry (2:17)
04. Earth Song (5:24)
05. Everlasting Love (4:47)
06. Hollywood (4:09)
07. Magic In Your Eyes (3:52)
08. Better Days (4:16)
09. Egyptian Song (5:10)
 
 
Лог создания рипа
Exact Audio Copy V1.0 beta 3 from 29. August 2011
EAC extraction logfile from 1. July 2015, 18:01
Rufus Featuring Chaka Khan / Ask Rufus
Used drive : ATAPI DVD A DH16A6L-C Adapter: 2 ID: 0
Read mode : Secure
Utilize accurate stream : Yes
Defeat audio cache : Yes
Make use of C2 pointers : No
Read offset correction : 6
Overread into Lead-In and Lead-Out : No
Fill up missing offset samples with silence : Yes
Delete leading and trailing silent blocks : No
Null samples used in CRC calculations : Yes
Used interface : Native Win32 interface for Win NT & 2000
Gap handling : Appended to previous track
Used output format : User Defined Encoder
Selected bitrate : 1024 kBit/s
Quality : High
Add ID3 tag : No
Command line compressor : C:\Program Files\FLAC\flac.exe
Additional command line options : -8 -V -T "ARTIST=%artist%" -T "TITLE=%title%" -T "ALBUM=%albumtitle%" -T "DATE=%year%" -T "TRACKNUMBER=%tracknr%" -T "GENRE=%genre%" -T "PERFORMER=%albuminterpret%" -T "COMPOSER=%composer%" %haslyrics%--tag-from-file=LYRICS="%lyricsfile%"%haslyrics% -T "ALBUMARTIST=%albumartist%" -T "DISCNUMBER=%cdnumber%" -T "TOTALDISCS=%totalcds%" -T "TOTALTRACKS=%numtracks%" -T "COMMENT=%comment%" %source% -o %dest%
TOC of the extracted CD
Track | Start | Length | Start sector | End sector
---------------------------------------------------------
1 | 0:00.00 | 4:20.67 | 0 | 19566
2 | 4:20.67 | 3:25.50 | 19567 | 34991
3 | 7:46.42 | 2:16.58 | 34992 | 45249
4 | 10:03.25 | 5:23.60 | 45250 | 69534
5 | 15:27.10 | 4:47.22 | 69535 | 91081
6 | 20:14.32 | 4:09.35 | 91082 | 109791
7 | 24:23.67 | 3:51.73 | 109792 | 127189
8 | 28:15.65 | 4:16.37 | 127190 | 146426
9 | 32:32.27 | 5:10.00 | 146427 | 169676
Track 1
Filename F:\MUSIC\0\POSTS\Rufus Featuring Chaka Khan - Ask Rufus (1977) [2015 Japan]\01 - Rufus Featuring Chaka Khan - At Midnight (My Love Will Lift You Up).wav
Pre-gap length 0:00:02.00
Peak level 99.8 %
Extraction speed 3.4 X
Track quality 100.0 %
Test CRC 963D9A65
Copy CRC 963D9A65
Cannot be verified as accurate (confidence 2) [1B3769CC], AccurateRip returned [7B4D7925] (AR v2)
Copy OK
Track 2
Filename F:\MUSIC\0\POSTS\Rufus Featuring Chaka Khan - Ask Rufus (1977) [2015 Japan]\02 - Rufus Featuring Chaka Khan - Close The Door.wav
Peak level 99.8 %
Extraction speed 3.7 X
Track quality 100.0 %
Test CRC DA8E7D3D
Copy CRC DA8E7D3D
Cannot be verified as accurate (confidence 2) [7C2D9F71], AccurateRip returned [53FAFAD3] (AR v2)
Copy OK
Track 3
Filename F:\MUSIC\0\POSTS\Rufus Featuring Chaka Khan - Ask Rufus (1977) [2015 Japan]\03 - Medley - A. Slow Screw Against The Wall ,B. A Flat Fry.wav
Peak level 94.4 %
Extraction speed 2.7 X
Track quality 99.9 %
Test CRC 5D5EB524
Copy CRC 5D5EB524
Cannot be verified as accurate (confidence 2) [5014B0A4], AccurateRip returned [9FA9FBA6] (AR v2)
Copy OK
Track 4
Filename F:\MUSIC\0\POSTS\Rufus Featuring Chaka Khan - Ask Rufus (1977) [2015 Japan]\04 - Rufus Featuring Chaka Khan - Earth Song.wav
Peak level 99.8 %
Extraction speed 4.5 X
Track quality 100.0 %
Test CRC 68DB8D46
Copy CRC 68DB8D46
Cannot be verified as accurate (confidence 2) [7B86EBED], AccurateRip returned [E2C4B320] (AR v2)
Copy OK
Track 5
Filename F:\MUSIC\0\POSTS\Rufus Featuring Chaka Khan - Ask Rufus (1977) [2015 Japan]\05 - Rufus Featuring Chaka Khan - Everlasting Love.wav
Peak level 99.8 %
Extraction speed 4.8 X
Track quality 100.0 %
Test CRC 1C6DA192
Copy CRC 1C6DA192
Cannot be verified as accurate (confidence 2) [F8824310], AccurateRip returned [E6A4405D] (AR v2)
Copy OK
Track 6
Filename F:\MUSIC\0\POSTS\Rufus Featuring Chaka Khan - Ask Rufus (1977) [2015 Japan]\06 - Rufus Featuring Chaka Khan - Hollywood.wav
Pre-gap length 0:00:01.47
Peak level 97.7 %
Extraction speed 5.1 X
Track quality 100.0 %
Test CRC BBA9DAC5
Copy CRC BBA9DAC5
Cannot be verified as accurate (confidence 2) [02A114E7], AccurateRip returned [1DF05AC6] (AR v2)
Copy OK
Track 7
Filename F:\MUSIC\0\POSTS\Rufus Featuring Chaka Khan - Ask Rufus (1977) [2015 Japan]\07 - Rufus Featuring Chaka Khan - Magic In Your Eyes.wav
Peak level 97.7 %
Extraction speed 5.3 X
Track quality 100.0 %
Test CRC 6C24C2FE
Copy CRC 6C24C2FE
Cannot be verified as accurate (confidence 2) [C4B91E23], AccurateRip returned [13B66841] (AR v2)
Copy OK
Track 8
Filename F:\MUSIC\0\POSTS\Rufus Featuring Chaka Khan - Ask Rufus (1977) [2015 Japan]\08 - Rufus Featuring Chaka Khan - Better Days.wav
Peak level 97.7 %
Extraction speed 5.6 X
Track quality 100.0 %
Test CRC 3674ECBC
Copy CRC 3674ECBC
Cannot be verified as accurate (confidence 2) [271B573B], AccurateRip returned [9C4B83FE] (AR v2)
Copy OK
Track 9
Filename F:\MUSIC\0\POSTS\Rufus Featuring Chaka Khan - Ask Rufus (1977) [2015 Japan]\09 - Rufus Featuring Chaka Khan - Egyptian Song.wav
Pre-gap length 0:00:01.32
Peak level 97.7 %
Extraction speed 6.0 X
Track quality 100.0 %
Test CRC EA586358
Copy CRC EA586358
Cannot be verified as accurate (confidence 2) [36CC08FA], AccurateRip returned [B669C462] (AR v2)
Copy OK
No tracks could be verified as accurate
You may have a different pressing from the one(s) in the database
No errors occurred
End of status report
==== Log checksum 8A7B33E63BDA21E98AB4CE4FEF65041792B586EC33674B863EF75A30D71C1D4E ====
 
Содержание индексной карты (.CUE)
REM GENRE Funk
REM DATE 1977
REM DISCID 8108D609
REM COMMENT "ExactAudioCopy v1.0b3"
PERFORMER "Rufus Featuring Chaka Khan"
TITLE "Ask Rufus"
FILE "01. At Midnight (My Love Will Lift You Up).flac" WAVE
TRACK 01 AUDIO
TITLE "At Midnight (My Love Will Lift You Up)"
PERFORMER "Rufus Featuring Chaka Khan"
INDEX 01 00:00:00
FILE "02. Close The Door.flac" WAVE
TRACK 02 AUDIO
TITLE "Close The Door"
PERFORMER "Rufus Featuring Chaka Khan"
INDEX 01 00:00:00
FILE "03. Medley- Slow Screw Against The Wall - A Flat Fry.flac" WAVE
TRACK 03 AUDIO
TITLE "Medley: Slow Screw Against The Wall / A Flat Fry"
PERFORMER "Rufus Featuring Chaka Khan"
INDEX 01 00:00:00
FILE "04. Earth Song.flac" WAVE
TRACK 04 AUDIO
TITLE "Earth Song"
PERFORMER "Rufus Featuring Chaka Khan"
INDEX 01 00:00:00
FILE "05. Everlasting Love.flac" WAVE
TRACK 05 AUDIO
TITLE "Everlasting Love"
PERFORMER "Rufus Featuring Chaka Khan"
INDEX 01 00:00:00
TRACK 06 AUDIO
TITLE "Hollywood"
PERFORMER "Rufus Featuring Chaka Khan"
INDEX 00 04:45:50
FILE "06. Hollywood.flac" WAVE
INDEX 01 00:00:00
FILE "07. Magic In Your Eyes.flac" WAVE
TRACK 07 AUDIO
TITLE "Magic In Your Eyes"
PERFORMER "Rufus Featuring Chaka Khan"
INDEX 01 00:00:00
FILE "08. Better Days.flac" WAVE
TRACK 08 AUDIO
TITLE "Better Days"
PERFORMER "Rufus Featuring Chaka Khan"
INDEX 01 00:00:00
TRACK 09 AUDIO
TITLE "Egyptian Song"
PERFORMER "Rufus Featuring Chaka Khan"
INDEX 00 04:15:05
FILE "09. Egyptian Song.flac" WAVE
INDEX 01 00:00:00
Приватный:
Нет (DHT включён)
Размер:
340.48 Мб (357,014,749 байт) » файлов: 28
Участники:
0 раздают, 0 качают (0 участников всего)
Внешние участники:
5 раздают, 1 качают (6 участников всего) [ Обновить ]
Есть вопросы - пишите личное сообщение пользователю M0p94ok.
06:52
49
Нет комментариев. Ваш будет первым!