Поиск

(Soul) [CD] Ronnie McNeir - Rare McNeir - 1996, FLAC (tracks+.cue), lossless

(Soul) [CD] Ronnie McNeir - Rare McNeir - 1996, FLAC (tracks+.cue), lossless
Треклист:
Ronnie McNeir - Rare McNeir
Жанр: Soul
Носитель: CD
Год издания: 1996
Издатель (лейбл): About Time Records
Номер по каталогу: AT CD-024
Аудиокодек: FLAC (*.flac)
Тип рипа: tracks+.cue
Битрейт аудио: lossless
Продолжительность: 63:19
Rip by JET 1
Наличие сканов в содержимом раздачи: да
Треклист:
01. Baby I Know (Remix) (3:28)
02. A Different Kind Of Love (with Rena Scott) (4:03)
03. The Lonely Superstar (5:27)
04. Southern Pearl (4:49)
05. Ain't No WOman Like My Baby (5:06)
06. This Is My Prayer (6:36)
07. I Want To Thank You (3:37)
08. Strong For Each Other (8:31)
09. The Good Side Of Your Love (3:50)
10. Your Best Friend And Me (5:24)
11. I'll Come Running Back (2:51)
12. Remember Baby (4:42)
13. I Got Someone (4:57)
 
 
Лог создания рипа
Exact Audio Copy V1.0 beta 3 from 29. August 2011
EAC extraction logfile from 30. June 2015, 12:48
Ronnie McNeir / Rare McNeir
Used drive : ATAPI DVD A DH16A6L-C Adapter: 2 ID: 0
Read mode : Secure
Utilize accurate stream : Yes
Defeat audio cache : Yes
Make use of C2 pointers : No
Read offset correction : 6
Overread into Lead-In and Lead-Out : No
Fill up missing offset samples with silence : Yes
Delete leading and trailing silent blocks : No
Null samples used in CRC calculations : Yes
Used interface : Native Win32 interface for Win NT & 2000
Gap handling : Appended to previous track
Used output format : User Defined Encoder
Selected bitrate : 1024 kBit/s
Quality : High
Add ID3 tag : No
Command line compressor : C:\Program Files\FLAC\flac.exe
Additional command line options : -8 -V -T "ARTIST=%artist%" -T "TITLE=%title%" -T "ALBUM=%albumtitle%" -T "DATE=%year%" -T "TRACKNUMBER=%tracknr%" -T "GENRE=%genre%" -T "PERFORMER=%albuminterpret%" -T "COMPOSER=%composer%" %haslyrics%--tag-from-file=LYRICS="%lyricsfile%"%haslyrics% -T "ALBUMARTIST=%albumartist%" -T "DISCNUMBER=%cdnumber%" -T "TOTALDISCS=%totalcds%" -T "TOTALTRACKS=%numtracks%" -T "COMMENT=%comment%" %source% -o %dest%
TOC of the extracted CD
Track | Start | Length | Start sector | End sector
---------------------------------------------------------
1 | 0:00.33 | 3:28.07 | 33 | 15639
2 | 3:28.40 | 4:02.45 | 15640 | 33834
3 | 7:31.10 | 5:27.00 | 33835 | 58359
4 | 12:58.10 | 4:48.48 | 58360 | 80007
5 | 17:46.58 | 5:06.05 | 80008 | 102962
6 | 22:52.63 | 6:35.40 | 102963 | 132627
7 | 29:28.28 | 3:36.67 | 132628 | 148894
8 | 33:05.20 | 8:30.65 | 148895 | 187209
9 | 41:36.10 | 3:50.08 | 187210 | 204467
10 | 45:26.18 | 5:23.62 | 204468 | 228754
11 | 50:50.05 | 2:50.68 | 228755 | 241572
12 | 53:40.73 | 4:41.55 | 241573 | 262702
13 | 58:22.53 | 4:56.70 | 262703 | 284972
Track 1
Filename F:\MUSIC\0\POSTS\Ronnie McNeir - Rare McNeir (1996)\01 - Baby I Know (Remix).wav
Pre-gap length 0:00:02.33
Peak level 94.4 %
Extraction speed 3.7 X
Track quality 100.0 %
Test CRC 10D9533B
Copy CRC 10D9533B
Track not present in AccurateRip database
Copy OK
Track 2
Filename F:\MUSIC\0\POSTS\Ronnie McNeir - Rare McNeir (1996)\02 - A Different Kind Of Love (with Rena Scott).wav
Pre-gap length 0:00:01.25
Peak level 76.2 %
Extraction speed 4.1 X
Track quality 100.0 %
Test CRC AE822BDD
Copy CRC AE822BDD
Track not present in AccurateRip database
Copy OK
Track 3
Filename F:\MUSIC\0\POSTS\Ronnie McNeir - Rare McNeir (1996)\03 - The Lonely Superstar.wav
Pre-gap length 0:00:01.20
Peak level 94.4 %
Extraction speed 4.0 X
Track quality 99.9 %
Test CRC D2C7FBC2
Copy CRC D2C7FBC2
Track not present in AccurateRip database
Copy OK
Track 4
Filename F:\MUSIC\0\POSTS\Ronnie McNeir - Rare McNeir (1996)\04 - Southern Pearl.wav
Pre-gap length 0:00:00.62
Peak level 84.1 %
Extraction speed 5.1 X
Track quality 100.0 %
Test CRC 1599A28E
Copy CRC 1599A28E
Track not present in AccurateRip database
Copy OK
Track 5
Filename F:\MUSIC\0\POSTS\Ronnie McNeir - Rare McNeir (1996)\05 - Ain't No WOman Like My Baby.wav
Pre-gap length 0:00:02.08
Peak level 83.4 %
Extraction speed 4.6 X
Track quality 99.9 %
Test CRC CDB478B1
Copy CRC CDB478B1
Track not present in AccurateRip database
Copy OK
Track 6
Filename F:\MUSIC\0\POSTS\Ronnie McNeir - Rare McNeir (1996)\06 - This Is My Prayer.wav
Pre-gap length 0:00:01.05
Peak level 89.1 %
Extraction speed 6.1 X
Track quality 100.0 %
Test CRC 1A9CEA2D
Copy CRC 1A9CEA2D
Track not present in AccurateRip database
Copy OK
Track 7
Filename F:\MUSIC\0\POSTS\Ronnie McNeir - Rare McNeir (1996)\07 - I Want To Thank You.wav
Pre-gap length 0:00:01.20
Peak level 84.1 %
Extraction speed 6.0 X
Track quality 100.0 %
Test CRC 7F07F1C3
Copy CRC 7F07F1C3
Track not present in AccurateRip database
Copy OK
Track 8
Filename F:\MUSIC\0\POSTS\Ronnie McNeir - Rare McNeir (1996)\08 - Strong For Each Other.wav
Pre-gap length 0:00:01.00
Peak level 94.4 %
Extraction speed 7.0 X
Track quality 100.0 %
Test CRC CDA5F4B6
Copy CRC CDA5F4B6
Track not present in AccurateRip database
Copy OK
Track 9
Filename F:\MUSIC\0\POSTS\Ronnie McNeir - Rare McNeir (1996)\09 - The Good Side Of Your Love.wav
Pre-gap length 0:00:00.60
Peak level 80.1 %
Extraction speed 6.7 X
Track quality 100.0 %
Test CRC 9F5105AF
Copy CRC 9F5105AF
Track not present in AccurateRip database
Copy OK
Track 10
Filename F:\MUSIC\0\POSTS\Ronnie McNeir - Rare McNeir (1996)\10 - Your Best Friend And Me.wav
Pre-gap length 0:00:01.18
Peak level 90.2 %
Extraction speed 2.0 X
Track quality 99.6 %
Test CRC F35DCEB4
Copy CRC F35DCEB4
Track not present in AccurateRip database
Copy OK
Track 11
Filename F:\MUSIC\0\POSTS\Ronnie McNeir - Rare McNeir (1996)\11 - I'll Come Running Back.wav
Pre-gap length 0:00:01.07
Peak level 86.7 %
Extraction speed 3.2 X
Track quality 99.7 %
Test CRC 57478F9E
Copy CRC 57478F9E
Track not present in AccurateRip database
Copy OK
Track 12
Filename F:\MUSIC\0\POSTS\Ronnie McNeir - Rare McNeir (1996)\12 - Remember Baby.wav
Pre-gap length 0:00:00.55
Peak level 84.1 %
Extraction speed 7.1 X
Track quality 100.0 %
Test CRC E1FC95D1
Copy CRC E1FC95D1
Track not present in AccurateRip database
Copy OK
Track 13
Filename F:\MUSIC\0\POSTS\Ronnie McNeir - Rare McNeir (1996)\13 - I Got Someone.wav
Pre-gap length 0:00:01.20
Peak level 94.4 %
Extraction speed 2.8 X
Track quality 99.7 %
Test CRC EB5726FF
Copy CRC EB5726FF
Track not present in AccurateRip database
Copy OK
None of the tracks are present in the AccurateRip database
No errors occurred
End of status report
==== Log checksum 1C5ABF1814ED4B11DD89E706807015489DA2DB974957E9C111F5F022A700E4A3 ====
 
Содержание индексной карты (.CUE)
REM GENRE Soul
REM DATE 1996
REM DISCID AF0ED70D
REM COMMENT "ExactAudioCopy v1.0b3"
PERFORMER "Ronnie McNeir"
TITLE "Rare McNeir"
FILE "01 - Baby I Know (Remix).wav" WAVE
TRACK 01 AUDIO
TITLE "Baby I Know (Remix)"
PERFORMER "Ronnie McNeir"
PREGAP 00:00:33
INDEX 01 00:00:00
TRACK 02 AUDIO
TITLE "A Different Kind Of Love (with Rena Scott)"
PERFORMER "Ronnie McNeir"
INDEX 00 03:26:57
FILE "02 - A Different Kind Of Love (with Rena Scott).wav" WAVE
INDEX 01 00:00:00
TRACK 03 AUDIO
TITLE "The Lonely Superstar"
PERFORMER "Ronnie McNeir"
INDEX 00 04:01:25
FILE "03 - The Lonely Superstar.wav" WAVE
INDEX 01 00:00:00
TRACK 04 AUDIO
TITLE "Southern Pearl"
PERFORMER "Ronnie McNeir"
INDEX 00 05:26:13
FILE "04 - Southern Pearl.wav" WAVE
INDEX 01 00:00:00
TRACK 05 AUDIO
TITLE "Ain't No WOman Like My Baby"
PERFORMER "Ronnie McNeir"
INDEX 00 04:46:40
FILE "05 - Ain't No WOman Like My Baby.wav" WAVE
INDEX 01 00:00:00
TRACK 06 AUDIO
TITLE "This Is My Prayer"
PERFORMER "Ronnie McNeir"
INDEX 00 05:05:00
FILE "06 - This Is My Prayer.wav" WAVE
INDEX 01 00:00:00
TRACK 07 AUDIO
TITLE "I Want To Thank You"
PERFORMER "Ronnie McNeir"
INDEX 00 06:34:20
FILE "07 - I Want To Thank You.wav" WAVE
INDEX 01 00:00:00
TRACK 08 AUDIO
TITLE "Strong For Each Other"
PERFORMER "Ronnie McNeir"
INDEX 00 03:35:67
FILE "08 - Strong For Each Other.wav" WAVE
INDEX 01 00:00:00
TRACK 09 AUDIO
TITLE "The Good Side Of Your Love"
PERFORMER "Ronnie McNeir"
INDEX 00 08:30:05
FILE "09 - The Good Side Of Your Love.wav" WAVE
INDEX 01 00:00:00
TRACK 10 AUDIO
TITLE "Your Best Friend And Me"
PERFORMER "Ronnie McNeir"
INDEX 00 03:48:65
FILE "10 - Your Best Friend And Me.wav" WAVE
INDEX 01 00:00:00
TRACK 11 AUDIO
TITLE "I'll Come Running Back"
PERFORMER "Ronnie McNeir"
INDEX 00 05:22:55
FILE "11 - I'll Come Running Back.wav" WAVE
INDEX 01 00:00:00
TRACK 12 AUDIO
TITLE "Remember Baby"
PERFORMER "Ronnie McNeir"
INDEX 00 02:50:13
FILE "12 - Remember Baby.wav" WAVE
INDEX 01 00:00:00
TRACK 13 AUDIO
TITLE "I Got Someone"
PERFORMER "Ronnie McNeir"
INDEX 00 04:40:35
FILE "13 - I Got Someone.wav" WAVE
INDEX 01 00:00:00
Приватный:
Нет (DHT включён)
Размер:
394.43 Мб (413,584,790 байт) » файлов: 22
Участники:
0 раздают, 0 качают (0 участников всего)
Внешние участники:
2 раздают, 1 качают (3 участников всего) [ Обновить ]
Есть вопросы - пишите личное сообщение пользователю M0p94ok.
06:54
97
Нет комментариев. Ваш будет первым!