Поиск

(Funk, Soul, R&B) [CD] Howard Johnson - The Vision (1985) - 2010 (Remastered), FLAC (tracks+.cue), lossless

(Funk, Soul, R&B) [CD] Howard Johnson - The Vision (1985) - 2010 (Remastered), FLAC (tracks+.cue), lossless
Треклист:
Howard Johnson - The Vision (1985) Жанр: Funk, Soul, R&B
Носитель: CD
Год издания: 2010
Издатель (лейбл): PTG Records
Номер по каталогу: PTG 34113
Аудиокодек: FLAC (*.flac)
Тип рипа: tracks+.cue
Битрейт аудио: lossless
Продолжительность: 44:29
Источник (релизер): What.cd (FunkyJamz)
Наличие сканов в содержимом раздачи: да
Треклист:
01. Stand Up (4:22)
02. Knees (5:38)
03. So Tuff (4:49)
04. Outta My Head (5:17)
05. You've Got A Lot To Learn (4:08)
06. Show Me How (4:44)
07. All We Have Is Love (4:22)
08. Older Girl (4:43)
09. Stand Up (Special Remix Version) (6:26)
 
 
Лог создания рипа
Exact Audio Copy V1.0 beta 3 from 29. August 2011
EAC extraction logfile from 26. August 2012, 20:52
Howard Johnson / The Vision
Used drive : HL-DT-STDVDRAM GE20LU11 Adapter: 1 ID: 0
Read mode : Secure
Utilize accurate stream : Yes
Defeat audio cache : Yes
Make use of C2 pointers : No
Read offset correction : 667
Overread into Lead-In and Lead-Out : No
Fill up missing offset samples with silence : Yes
Delete leading and trailing silent blocks : No
Null samples used in CRC calculations : Yes
Used interface : Native Win32 interface for Win NT & 2000
Gap handling : Appended to previous track
Used output format : User Defined Encoder
Selected bitrate : 128 kBit/s
Quality : High
Add ID3 tag : No
Command line compressor : C:\Program Files (x86)\Exact Audio Copy\Flac\flac.exe
Additional command line options : -8 -V -T "ARTIST=%artist%" -T "TITLE=%title%" -T "ALBUM=%albumtitle%" -T "DATE=%year%" -T "TRACKNUMBER=%tracknr%" -T "TOTALTRACKS=%numtracks%" -T "GENRE=%genre%" -T "ALBUMARTIST=%albumartist%" -T "ALBUM ARTIST=%albumartist%" -T "COMMENT=EAC Secure Mode, Test & Copy, AccurateRip, FLAC -8" %source%
TOC of the extracted CD
Track | Start | Length | Start sector | End sector
---------------------------------------------------------
1 | 0:00.00 | 4:22.04 | 0 | 19653
2 | 4:22.04 | 5:37.43 | 19654 | 44971
3 | 9:59.47 | 4:49.05 | 44972 | 66651
4 | 14:48.52 | 5:17.29 | 66652 | 90455
5 | 20:06.06 | 4:08.33 | 90456 | 109088
6 | 24:14.39 | 4:43.62 | 109089 | 130375
7 | 28:58.26 | 4:21.44 | 130376 | 149994
8 | 33:19.70 | 4:43.12 | 149995 | 171231
9 | 38:03.07 | 6:26.10 | 171232 | 200191
Track 1
Filename C:\01 - Stand Up.wav
Pre-gap length 0:00:02.00
Peak level 98.8 %
Extraction speed 1.1 X
Track quality 100.0 %
Test CRC 2CCF86A9
Copy CRC 2CCF86A9
Track not present in AccurateRip database
Copy OK
Track 2
Filename C:\02 - Knees.wav
Peak level 98.8 %
Extraction speed 1.3 X
Track quality 100.0 %
Test CRC 769A9A59
Copy CRC 769A9A59
Track not present in AccurateRip database
Copy OK
Track 3
Filename C:\03 - So Tuff.wav
Peak level 98.8 %
Extraction speed 1.3 X
Track quality 100.0 %
Test CRC FFED4F2B
Copy CRC FFED4F2B
Track not present in AccurateRip database
Copy OK
Track 4
Filename C:\04 - Outta My Head.wav
Peak level 98.8 %
Extraction speed 1.4 X
Track quality 99.9 %
Test CRC CA129872
Copy CRC CA129872
Track not present in AccurateRip database
Copy OK
Track 5
Filename C:\05 - You've Got a Lot To Learn.wav
Peak level 98.8 %
Extraction speed 1.7 X
Track quality 100.0 %
Test CRC 4758CE5A
Copy CRC 4758CE5A
Track not present in AccurateRip database
Copy OK
Track 6
Filename C:\06 - Show Me How.wav
Peak level 98.8 %
Extraction speed 1.6 X
Track quality 99.9 %
Test CRC C9922D6F
Copy CRC C9922D6F
Track not present in AccurateRip database
Copy OK
Track 7
Filename C:\07 - All We Have is Love.wav
Peak level 98.8 %
Extraction speed 1.6 X
Track quality 99.9 %
Test CRC D7E27527
Copy CRC D7E27527
Track not present in AccurateRip database
Copy OK
Track 8
Filename C:\08 - Older Girl.wav
Peak level 98.8 %
Extraction speed 0.2 X
Track quality 99.7 %
Test CRC EE7ED568
Copy CRC EE7ED568
Track not present in AccurateRip database
Copy OK
Track 9
Filename C:\09 - Stand Up [Special Remix Version].wav
Peak level 98.8 %
Extraction speed 0.1 X
Track quality 99.6 %
Test CRC F0641E74
Copy CRC F0641E74
Track not present in AccurateRip database
Copy OK
None of the tracks are present in the AccurateRip database
No errors occurred
End of status report
==== Log checksum B246769857D297EEDEBB70EEC05EA7FF1A299851F7BD0E933B5240E96F014360 ====
 
Содержание индексной карты (.CUE)
REM GENRE R&B
REM DATE 1985
REM DISCID 610A6D09
REM COMMENT "ExactAudioCopy v1.0b3"
PERFORMER "Howard Johnson"
TITLE "The Vision"
FILE "01 - Stand Up.wav" WAVE
TRACK 01 AUDIO
TITLE "Stand Up"
PERFORMER "Howard Johnson"
INDEX 01 00:00:00
FILE "02 - Knees.wav" WAVE
TRACK 02 AUDIO
TITLE "Knees"
PERFORMER "Howard Johnson"
INDEX 01 00:00:00
FILE "03 - So Tuff.wav" WAVE
TRACK 03 AUDIO
TITLE "So Tuff"
PERFORMER "Howard Johnson"
INDEX 01 00:00:00
FILE "04 - Outta My Head.wav" WAVE
TRACK 04 AUDIO
TITLE "Outta My Head"
PERFORMER "Howard Johnson"
INDEX 01 00:00:00
FILE "05 - You've Got A Lot To Learn.wav" WAVE
TRACK 05 AUDIO
TITLE "You've Got A Lot To Learn"
PERFORMER "Howard Johnson"
INDEX 01 00:00:00
FILE "06 - Show Me How.wav" WAVE
TRACK 06 AUDIO
TITLE "Show Me How"
PERFORMER "Howard Johnson"
INDEX 01 00:00:00
FILE "07 - All We Have Is Love.wav" WAVE
TRACK 07 AUDIO
TITLE "All We Have Is Love"
PERFORMER "Howard Johnson"
INDEX 01 00:00:00
FILE "08 - Older Girl.wav" WAVE
TRACK 08 AUDIO
TITLE "Older Girl"
PERFORMER "Howard Johnson"
INDEX 01 00:00:00
FILE "09 - Stand Up (Special Remix Version).wav" WAVE
TRACK 09 AUDIO
TITLE "Stand Up (Special Remix Version)"
PERFORMER "Howard Johnson"
INDEX 01 00:00:00
Приватный:
Нет (DHT включён)
Размер:
314.89 Мб (330,191,251 байт) » файлов: 19
Участники:
0 раздают, 0 качают (0 участников всего)
Внешние участники:
3 раздают, 1 качают (4 участников всего) [ Обновить ]
Есть вопросы - пишите личное сообщение пользователю M0p94ok.
04:37
83
Нет комментариев. Ваш будет первым!