Поиск

(Funk, Soul, R&B) [CD] Howard Johnson - Keepin' Love New (1982) - 2005 (Remastered), FLAC (tracks+.cue), lossless

(Funk, Soul, R&B) [CD] Howard Johnson - Keepin' Love New (1982) - 2005 (Remastered), FLAC (tracks+.cue), lossless
Треклист:
Howard Johnson - Keepin' Love New (1982) Жанр: Funk, Soul, R&B
Носитель: CD
Год издания: 2005
Издатель (лейбл): PTG Records
Номер по каталогу: PTG 34014
Аудиокодек: FLAC (*.flac)
Тип рипа: tracks+.cue
Битрейт аудио: lossless
Продолжительность: 34:44
Источник (релизер): What.cd (Rarities)
Наличие сканов в содержимом раздачи: сетевые
Треклист:
01. Keepin' Love New (3:52)
02. Forever Falling In Love (4:16)
03. Take Me Through The Night (4:36)
04. Jam Song (4:03)
05. So Glad You're My Lady (5:28)
06. So Fine (3:42)
07. Say You Wanna (5:07)
08. This Is Heaven (3:39)
 
 
Лог создания рипа
Exact Audio Copy V0.99 prebeta 4 from 23. January 2008
EAC extraction logfile from 22. May 2010, 0:48
Howard Johnson / Keepin' Love New
Used drive : TSSTcorpCD/DVDW SH-S182D Adapter: 3 ID: 0
Read mode : Secure
Utilize accurate stream : Yes
Defeat audio cache : Yes
Make use of C2 pointers : No
Read offset correction : 6
Overread into Lead-In and Lead-Out : No
Fill up missing offset samples with silence : Yes
Delete leading and trailing silent blocks : No
Null samples used in CRC calculations : Yes
Used interface : Native Win32 interface for Win NT & 2000
Gap handling : Appended to previous track
Used output format : User Defined Encoder
Selected bitrate : 320 kBit/s
Quality : High
Add ID3 tag : No
Command line compressor : C:\Arquivos de programas\Exact Audio Copy\Flac\flac.exe
Additional command line options : -V -8 -T "artist=%a" -T "title=%t" -T "album=%g" -T "date=%y" -T "tracknumber=%n" -T "genre=%m" %s
TOC of the extracted CD
Track | Start | Length | Start sector | End sector
---------------------------------------------------------
1 | 0:00.00 | 3:52.28 | 0 | 17427
2 | 3:52.28 | 4:15.43 | 17428 | 36595
3 | 8:07.71 | 4:36.16 | 36596 | 57311
4 | 12:44.12 | 4:03.19 | 57312 | 75555
5 | 16:47.31 | 5:27.44 | 75556 | 100124
6 | 22:15.00 | 3:42.02 | 100125 | 116776
7 | 25:57.02 | 5:07.30 | 116777 | 139831
8 | 31:04.32 | 3:39.18 | 139832 | 156274
Track 1
Filename L:\Recording\Howard Johnson (1982) Keepin' Love New\01 - Keepin' Love New.wav
Pre-gap length 0:00:02.00
Peak level 96.6 %
Track quality 100.0 %
Test CRC 0C6E6474
Copy CRC 0C6E6474
Track not present in AccurateRip database
Copy OK
Track 2
Filename L:\Recording\Howard Johnson (1982) Keepin' Love New\02 - Forever Falling In Love.wav
Pre-gap length 0:00:02.00
Peak level 96.6 %
Track quality 100.0 %
Test CRC 8E7819A1
Copy CRC 8E7819A1
Track not present in AccurateRip database
Copy OK
Track 3
Filename L:\Recording\Howard Johnson (1982) Keepin' Love New\03 - Take Me Through The Night.wav
Pre-gap length 0:00:02.00
Peak level 96.6 %
Track quality 100.0 %
Test CRC 57196F25
Copy CRC 57196F25
Track not present in AccurateRip database
Copy OK
Track 4
Filename L:\Recording\Howard Johnson (1982) Keepin' Love New\04 - Jam Song.wav
Pre-gap length 0:00:02.00
Peak level 96.6 %
Track quality 100.0 %
Test CRC EBEA01D0
Copy CRC EBEA01D0
Track not present in AccurateRip database
Copy OK
Track 5
Filename L:\Recording\Howard Johnson (1982) Keepin' Love New\05 - So Glad You're My Lady.wav
Pre-gap length 0:00:02.00
Peak level 96.6 %
Track quality 100.0 %
Test CRC 2D2DB31E
Copy CRC 2D2DB31E
Track not present in AccurateRip database
Copy OK
Track 6
Filename L:\Recording\Howard Johnson (1982) Keepin' Love New\06 - So Fine.wav
Pre-gap length 0:00:02.00
Peak level 96.6 %
Track quality 100.0 %
Test CRC F460E9AB
Copy CRC F460E9AB
Track not present in AccurateRip database
Copy OK
Track 7
Filename L:\Recording\Howard Johnson (1982) Keepin' Love New\07 - Say You Wanna.wav
Pre-gap length 0:00:02.00
Peak level 96.6 %
Track quality 100.0 %
Test CRC 5DB5A456
Copy CRC 5DB5A456
Track not present in AccurateRip database
Copy OK
Track 8
Filename L:\Recording\Howard Johnson (1982) Keepin' Love New\08 - This Is Heaven.wav
Pre-gap length 0:00:02.00
Peak level 96.6 %
Track quality 100.0 %
Test CRC 9B3A3E5F
Copy CRC 9B3A3E5F
Track not present in AccurateRip database
Copy OK
None of the tracks are present in the AccurateRip database
No errors occurred
End of status report
 
Содержание индексной карты (.CUE)
REM GENRE Funk
REM DATE 1982
REM DISCID 74082308
REM COMMENT "ExactAudioCopy v0.99pb4"
PERFORMER "Howard Johnson"
TITLE "Keepin' Love New"
FILE "01 - Keepin' Love New.flac" WAVE
TRACK 01 AUDIO
TITLE "Keepin' Love New"
PERFORMER "Howard Johnson"
INDEX 01 00:00:00
TRACK 02 AUDIO
TITLE "Forever Falling In Love"
PERFORMER "Howard Johnson"
INDEX 00 03:50:28
FILE "02 - Forever Falling In Love.flac" WAVE
INDEX 01 00:00:00
TRACK 03 AUDIO
TITLE "Take Me Through The Night"
PERFORMER "Howard Johnson"
INDEX 00 04:13:43
FILE "03 - Take Me Through The Night.flac" WAVE
INDEX 01 00:00:00
TRACK 04 AUDIO
TITLE "Jam Song"
PERFORMER "Howard Johnson"
INDEX 00 04:34:16
FILE "04 - Jam Song.flac" WAVE
INDEX 01 00:00:00
TRACK 05 AUDIO
TITLE "So Glad You're My Lady"
PERFORMER "Howard Johnson"
INDEX 00 04:01:19
FILE "05 - So Glad You're My Lady.flac" WAVE
INDEX 01 00:00:00
TRACK 06 AUDIO
TITLE "So Fine"
PERFORMER "Howard Johnson"
INDEX 00 05:25:44
FILE "06 - So Fine.flac" WAVE
INDEX 01 00:00:00
TRACK 07 AUDIO
TITLE "Say You Wanna"
PERFORMER "Howard Johnson"
INDEX 00 03:40:02
FILE "07 - Say You Wanna.flac" WAVE
INDEX 01 00:00:00
TRACK 08 AUDIO
TITLE "This Is Heaven"
PERFORMER "Howard Johnson"
INDEX 00 05:05:30
FILE "08 - This Is Heaven.flac" WAVE
INDEX 01 00:00:00
Приватный:
Нет (DHT включён)
Размер:
225.31 Мб (236,251,642 байт) » файлов: 16
Участники:
0 раздают, 0 качают (0 участников всего)
Внешние участники:
7 раздают, 2 качают (9 участников всего) [ Обновить ]
Есть вопросы - пишите личное сообщение пользователю M0p94ok.
04:38
93
Нет комментариев. Ваш будет первым!