Поиск

(Funk, Soul, R&B) [CD] Howard Johnson - Doin' It My Way (1983) - 2010 (Remastered), FLAC (tracks+.cue), lossless

(Funk, Soul, R&B) [CD] Howard Johnson - Doin' It My Way (1983) - 2010 (Remastered), FLAC (tracks+.cue), lossless
Треклист:
Howard Johnson - Doin' It My Way (1983) Жанр: Funk, Soul, R&B
Носитель: CD
Год издания: 2010
Издатель (лейбл): PTG Records
Номер по каталогу: PTG 34112
Аудиокодек: FLAC (*.flac)
Тип рипа: tracks+.cue
Битрейт аудио: lossless
Продолжительность: 51:10
Источник (релизер): What.cd (zacki)
Наличие сканов в содержимом раздачи: нет
Треклист:
01. My Way (6:25)
02. Jump Into Fire (4:44)
03. Let's Take Time Out (4:37)
04. Missing You (3:30)
05. Much Too Much (5:03)
06. You're The One I've Needed (5:51)
07. Let This Dream Be Real (5:10)
08. Everywhere I Go (3:33)
09. Let This Dream Be Real (Remix) (6:37)
10. Let's Take Time Out (Long Version) (5:40)
 
 
Лог создания рипа
Exact Audio Copy V1.0 beta 3 from 29. August 2011
EAC extraction logfile from 14. December 2011, 15:13
Howard Johnson / Doin' It My Way
Used drive : TSSTcorpCDDVDW SH-S223C Adapter: 4 ID: 0
Read mode : Secure
Utilize accurate stream : Yes
Defeat audio cache : Yes
Make use of C2 pointers : No
Read offset correction : 697
Overread into Lead-In and Lead-Out : No
Fill up missing offset samples with silence : Yes
Delete leading and trailing silent blocks : No
Null samples used in CRC calculations : Yes
Used interface : Native Win32 interface for Win NT & 2000
Gap handling : Appended to previous track
Used output format : User Defined Encoder
Selected bitrate : 768 kBit/s
Quality : High
Add ID3 tag : No
Command line compressor : C:\Program Files\Exact Audio Copy\Flac\flac.exe
Additional command line options : -8 -V -T "Artist=%artist%" -T "Title=%title%" -T "Album=%albumtitle%" -T "DATE=%year%" -T "TRACKNUMBER=%tracknr%" -T "Genre=%genre%" -T "ALBUMARTIST=%albumartist%" -T "ALBUM ARTIST=%albumartist%" -T "COMMENT=EAC Secure Mode, Test & Copy, AccurateRip, FLAC -8" %source%
TOC of the extracted CD
Track | Start | Length | Start sector | End sector
---------------------------------------------------------
1 | 0:00.00 | 6:24.45 | 0 | 28844
2 | 6:24.45 | 4:43.57 | 28845 | 50126
3 | 11:08.27 | 4:37.00 | 50127 | 70901
4 | 15:45.27 | 3:29.61 | 70902 | 86637
5 | 19:15.13 | 5:03.07 | 86638 | 109369
6 | 24:18.20 | 5:50.66 | 109370 | 135685
7 | 30:09.11 | 5:09.70 | 135686 | 158930
8 | 35:19.06 | 3:33.18 | 158931 | 174923
9 | 38:52.24 | 6:37.00 | 174924 | 204698
10 | 45:29.24 | 5:40.32 | 204699 | 230230
Track 1
Filename D:\EAC\01 - My Way.wav
Pre-gap length 0:00:02.00
Peak level 98.8 %
Extraction speed 2.1 X
Track quality 100.0 %
Test CRC FF3F279E
Copy CRC FF3F279E
Track not present in AccurateRip database
Copy OK
Track 2
Filename D:\EAC\02 - Jump Into Fire.wav
Peak level 98.8 %
Extraction speed 2.4 X
Track quality 100.0 %
Test CRC 3EC733DC
Copy CRC 3EC733DC
Track not present in AccurateRip database
Copy OK
Track 3
Filename D:\EAC\03 - Let's Take Time Out.wav
Peak level 98.8 %
Extraction speed 2.6 X
Track quality 100.0 %
Test CRC EEDDB099
Copy CRC EEDDB099
Track not present in AccurateRip database
Copy OK
Track 4
Filename D:\EAC\04 - Missing You.wav
Peak level 98.8 %
Extraction speed 2.1 X
Track quality 99.9 %
Test CRC B5311899
Copy CRC B5311899
Track not present in AccurateRip database
Copy OK
Track 5
Filename D:\EAC\05 - Much Too Much.wav
Peak level 98.8 %
Extraction speed 2.5 X
Track quality 99.9 %
Test CRC EF9F6332
Copy CRC EF9F6332
Track not present in AccurateRip database
Copy OK
Track 6
Filename D:\EAC\06 - You're The One I've Needed.wav
Peak level 98.8 %
Extraction speed 3.2 X
Track quality 100.0 %
Test CRC F0716AD8
Copy CRC F0716AD8
Track not present in AccurateRip database
Copy OK
Track 7
Filename D:\EAC\07 - Let This Dream Be Real.wav
Peak level 98.8 %
Extraction speed 3.4 X
Track quality 100.0 %
Test CRC 942751EF
Copy CRC 942751EF
Track not present in AccurateRip database
Copy OK
Track 8
Filename D:\EAC\08 - Everywhere I Go.wav
Peak level 98.8 %
Extraction speed 3.3 X
Track quality 100.0 %
Test CRC 067951D1
Copy CRC 067951D1
Track not present in AccurateRip database
Copy OK
Track 9
Filename D:\EAC\09 - Let This Dream Be Real (Remix).wav
Peak level 98.8 %
Extraction speed 3.8 X
Track quality 100.0 %
Test CRC 631E074A
Copy CRC 631E074A
Track not present in AccurateRip database
Copy OK
Track 10
Filename D:\EAC\10 - Let's Take Time Out (Long Version).wav
Peak level 98.8 %
Extraction speed 3.9 X
Track quality 100.0 %
Test CRC 89CC5C0D
Copy CRC 89CC5C0D
Track not present in AccurateRip database
Copy OK
None of the tracks are present in the AccurateRip database
No errors occurred
End of status report
==== Log checksum 65B45CBB0C1ED4E8FF570414C2F801478328E035868CDCD1E8CC7CE3124DF821 ====
 
Содержание индексной карты (.CUE)
REM GENRE R&B
REM DATE 1983
REM DISCID 770BFD0A
REM COMMENT "ExactAudioCopy v1.0b3"
PERFORMER "Howard Johnson"
TITLE "Doin' It My Way"
FILE "01 - My Way.wav" WAVE
TRACK 01 AUDIO
TITLE "My Way"
PERFORMER "Howard Johnson"
INDEX 01 00:00:00
FILE "02 - Jump Into Fire.wav" WAVE
TRACK 02 AUDIO
TITLE "Jump Into Fire"
PERFORMER "Howard Johnson"
INDEX 01 00:00:00
FILE "03 - Let's Take Time Out.wav" WAVE
TRACK 03 AUDIO
TITLE "Let's Take Time Out"
PERFORMER "Howard Johnson"
INDEX 01 00:00:00
FILE "04 - Missing You.wav" WAVE
TRACK 04 AUDIO
TITLE "Missing You"
PERFORMER "Howard Johnson"
INDEX 01 00:00:00
FILE "05 - Much Too Much.wav" WAVE
TRACK 05 AUDIO
TITLE "Much Too Much"
PERFORMER "Howard Johnson"
INDEX 01 00:00:00
FILE "06 - You're The One I've Needed.wav" WAVE
TRACK 06 AUDIO
TITLE "You're The One I've Needed"
PERFORMER "Howard Johnson"
INDEX 01 00:00:00
FILE "07 - Let This Dream Be Real.wav" WAVE
TRACK 07 AUDIO
TITLE "Let This Dream Be Real"
PERFORMER "Howard Johnson"
INDEX 01 00:00:00
FILE "08 - Everywhere I Go.wav" WAVE
TRACK 08 AUDIO
TITLE "Everywhere I Go"
PERFORMER "Howard Johnson"
INDEX 01 00:00:00
FILE "09 - Let This Dream Be Real (Remix).wav" WAVE
TRACK 09 AUDIO
TITLE "Let This Dream Be Real (Remix)"
PERFORMER "Howard Johnson"
INDEX 01 00:00:00
FILE "10 - Let's Take Time Out (Long Version).wav" WAVE
TRACK 10 AUDIO
TITLE "Let's Take Time Out (Long Version)"
PERFORMER "Howard Johnson"
INDEX 01 00:00:00
Приватный:
Нет (DHT включён)
Размер:
310.32 Мб (325,394,927 байт) » файлов: 15
Участники:
0 раздают, 0 качают (0 участников всего)
Внешние участники:
2 раздают, 1 качают (3 участников всего) [ Обновить ]
Есть вопросы - пишите личное сообщение пользователю M0p94ok.
04:38
156
Нет комментариев. Ваш будет первым!