Поиск

(Soul, Vocal Jazz) [CD] Gwendolyn Joy - Love Is... - 2004, FLAC (tracks+.cue), lossless

(Soul, Vocal Jazz) [CD] Gwendolyn Joy - Love Is... - 2004, FLAC (tracks+.cue), lossless
Треклист:
Gwendolyn Joy - Love Is...
Жанр: Soul, Vocal Jazz
Носитель: CD
Год издания: 2004
Издатель (лейбл): Expansion Records
Номер по каталогу: XECD 41
Аудиокодек: FLAC (*.flac)
Тип рипа: tracks+.cue
Битрейт аудио: lossless
Продолжительность: 59:30
Rip by JET 1
Наличие сканов в содержимом раздачи: да
Треклист:
01. Vanilla Tree (5:22)
02. I Surrender (4:42)
03. Let's Get Real (4:24)
04. Just A Little Lovin' (4:40)
05. In The Looking Glass (4:56)
06. Help Me (5:22)
07. Fathers Eyes (4:25)
08. What I See In You (6:11)
09. Simple Message (4:35)
10. Up & Down (4:38)
11. Where Do We Go From Here (5:05)
12. Love Is... (5:10)
 
 
Лог создания рипа
Exact Audio Copy V1.0 beta 3 from 29. August 2011
EAC extraction logfile from 10. March 2015, 18:29
Gwendolyn Joy / Love Is.....
Used drive : GENERIC CDRCB05 Adapter: 4 ID: 0
Read mode : Secure
Utilize accurate stream : Yes
Defeat audio cache : Yes
Make use of C2 pointers : No
Read offset correction : 102
Overread into Lead-In and Lead-Out : No
Fill up missing offset samples with silence : Yes
Delete leading and trailing silent blocks : No
Null samples used in CRC calculations : Yes
Used interface : Native Win32 interface for Win NT & 2000
Gap handling : Appended to previous track
Used output format : User Defined Encoder
Selected bitrate : 1024 kBit/s
Quality : High
Add ID3 tag : No
Command line compressor : C:\Program Files\FLAC\flac.exe
Additional command line options : -8 -V -T "ARTIST=%artist%" -T "TITLE=%title%" -T "ALBUM=%albumtitle%" -T "DATE=%year%" -T "TRACKNUMBER=%tracknr%" -T "GENRE=%genre%" -T "PERFORMER=%albuminterpret%" -T "COMPOSER=%composer%" %haslyrics%--tag-from-file=LYRICS="%lyricsfile%"%haslyrics% -T "ALBUMARTIST=%albumartist%" -T "DISCNUMBER=%cdnumber%" -T "TOTALDISCS=%totalcds%" -T "TOTALTRACKS=%numtracks%" -T "COMMENT=%comment%" %source% -o %dest%
TOC of the extracted CD
Track | Start | Length | Start sector | End sector
---------------------------------------------------------
1 | 0:00.00 | 5:21.57 | 0 | 24131
2 | 5:21.57 | 4:42.33 | 24132 | 45314
3 | 10:04.15 | 4:23.64 | 45315 | 65103
4 | 14:28.04 | 4:39.47 | 65104 | 86075
5 | 19:07.51 | 4:55.53 | 86076 | 108253
6 | 24:03.29 | 5:21.50 | 108254 | 132378
7 | 29:25.04 | 4:24.49 | 132379 | 152227
8 | 33:49.53 | 6:11.08 | 152228 | 180060
9 | 40:00.61 | 4:35.09 | 180061 | 200694
10 | 44:35.70 | 4:38.24 | 200695 | 221568
11 | 49:14.19 | 5:05.05 | 221569 | 244448
12 | 54:19.24 | 5:10.19 | 244449 | 267717
Track 1
Filename I:\0\Gwendolyn Joy ‎- Love Is...(2004)\01 - Vanilla Tree.wav
Pre-gap length 0:00:02.00
Peak level 99.7 %
Extraction speed 2.5 X
Track quality 100.0 %
Test CRC E01A6F2B
Copy CRC E01A6F2B
Accurately ripped (confidence 1) [CAA20F06] (AR v2)
Copy OK
Track 2
Filename I:\0\Gwendolyn Joy ‎- Love Is...(2004)\02 - I Surrender.wav
Pre-gap length 0:00:00.58
Peak level 99.7 %
Extraction speed 2.8 X
Track quality 100.0 %
Test CRC A46766E5
Copy CRC A46766E5
Accurately ripped (confidence 1) [798DDE17] (AR v2)
Copy OK
Track 3
Filename I:\0\Gwendolyn Joy ‎- Love Is...(2004)\03 - Let's Get Real.wav
Pre-gap length 0:00:00.58
Peak level 99.7 %
Extraction speed 3.0 X
Track quality 100.0 %
Test CRC FCE11B15
Copy CRC FCE11B15
Accurately ripped (confidence 1) [585180B9] (AR v2)
Copy OK
Track 4
Filename I:\0\Gwendolyn Joy ‎- Love Is...(2004)\04 - Just A Little Lovin'.wav
Pre-gap length 0:00:00.58
Peak level 99.7 %
Extraction speed 3.3 X
Track quality 100.0 %
Test CRC 923E9D5A
Copy CRC 923E9D5A
Accurately ripped (confidence 1) [4E125C66] (AR v2)
Copy OK
Track 5
Filename I:\0\Gwendolyn Joy ‎- Love Is...(2004)\05 - In The Looking Glass.wav
Pre-gap length 0:00:00.58
Peak level 99.7 %
Extraction speed 3.5 X
Track quality 100.0 %
Test CRC CB3EF9A9
Copy CRC CB3EF9A9
Accurately ripped (confidence 1) [65337726] (AR v2)
Copy OK
Track 6
Filename I:\0\Gwendolyn Joy ‎- Love Is...(2004)\06 - Help Me.wav
Pre-gap length 0:00:00.58
Peak level 99.7 %
Extraction speed 3.4 X
Track quality 99.9 %
Test CRC 1B7F90B4
Copy CRC 1B7F90B4
Accurately ripped (confidence 1) [7A11C787] (AR v2)
Copy OK
Track 7
Filename I:\0\Gwendolyn Joy ‎- Love Is...(2004)\07 - Fathers Eyes.wav
Pre-gap length 0:00:00.58
Peak level 99.7 %
Extraction speed 3.9 X
Track quality 100.0 %
Test CRC 644E0781
Copy CRC 644E0781
Accurately ripped (confidence 1) [0D1CE792] (AR v2)
Copy OK
Track 8
Filename I:\0\Gwendolyn Joy ‎- Love Is...(2004)\08 - What I See In You.wav
Pre-gap length 0:00:00.58
Peak level 99.7 %
Extraction speed 4.3 X
Track quality 100.0 %
Test CRC 01C9B82E
Copy CRC 01C9B82E
Accurately ripped (confidence 1) [63AD79EE] (AR v2)
Copy OK
Track 9
Filename I:\0\Gwendolyn Joy ‎- Love Is...(2004)\09 - Simple Message.wav
Pre-gap length 0:00:00.58
Peak level 99.7 %
Extraction speed 4.3 X
Track quality 100.0 %
Test CRC B1E0B77B
Copy CRC B1E0B77B
Accurately ripped (confidence 1) [5114F915] (AR v2)
Copy OK
Track 10
Filename I:\0\Gwendolyn Joy ‎- Love Is...(2004)\10 - Up & Down.wav
Pre-gap length 0:00:00.58
Peak level 99.7 %
Extraction speed 4.5 X
Track quality 100.0 %
Test CRC 587F5239
Copy CRC 587F5239
Accurately ripped (confidence 1) [17DAC4C4] (AR v2)
Copy OK
Track 11
Filename I:\0\Gwendolyn Joy ‎- Love Is...(2004)\11 - Where Do We Go From Here.wav
Pre-gap length 0:00:00.58
Peak level 99.7 %
Extraction speed 4.8 X
Track quality 100.0 %
Test CRC 625F5A0B
Copy CRC 625F5A0B
Accurately ripped (confidence 1) [BFA85DE9] (AR v2)
Copy OK
Track 12
Filename I:\0\Gwendolyn Joy ‎- Love Is...(2004)\12 - Love Is.....wav
Pre-gap length 0:00:00.58
Peak level 99.7 %
Extraction speed 5.0 X
Track quality 100.0 %
Test CRC 89186E57
Copy CRC 89186E57
Accurately ripped (confidence 1) [61112E97] (AR v2)
Copy OK
All tracks accurately ripped
No errors occurred
End of status report
==== Log checksum 2BEA49185637D8931C080B358977F191ACF933A5D0608C2325894FD4E844EEFB ====
 
Содержание индексной карты (.CUE)
REM GENRE Jazz
REM DATE 2004
REM DISCID 9D0DF10C
REM COMMENT "ExactAudioCopy v1.0b3"
PERFORMER "Gwendolyn Joy"
TITLE "Love Is..."
FILE "01 - Vanilla Tree.wav" WAVE
TRACK 01 AUDIO
TITLE "Vanilla Tree"
PERFORMER "Gwendolyn Joy"
INDEX 01 00:00:00
TRACK 02 AUDIO
TITLE "I Surrender"
PERFORMER "Gwendolyn Joy"
INDEX 00 05:20:74
FILE "02 - I Surrender.wav" WAVE
INDEX 01 00:00:00
TRACK 03 AUDIO
TITLE "Let's Get Real"
PERFORMER "Gwendolyn Joy"
INDEX 00 04:41:50
FILE "03 - Let's Get Real.wav" WAVE
INDEX 01 00:00:00
TRACK 04 AUDIO
TITLE "Just A Little Lovin'"
PERFORMER "Gwendolyn Joy"
INDEX 00 04:23:06
FILE "04 - Just A Little Lovin'.wav" WAVE
INDEX 01 00:00:00
TRACK 05 AUDIO
TITLE "In The Looking Glass"
PERFORMER "Gwendolyn Joy"
INDEX 00 04:38:64
FILE "05 - In The Looking Glass.wav" WAVE
INDEX 01 00:00:00
TRACK 06 AUDIO
TITLE "Help Me"
PERFORMER "Gwendolyn Joy"
INDEX 00 04:54:70
FILE "06 - Help Me.wav" WAVE
INDEX 01 00:00:00
TRACK 07 AUDIO
TITLE "Fathers Eyes"
PERFORMER "Gwendolyn Joy"
INDEX 00 05:20:67
FILE "07 - Fathers Eyes.wav" WAVE
INDEX 01 00:00:00
TRACK 08 AUDIO
TITLE "What I See In You"
PERFORMER "Gwendolyn Joy"
INDEX 00 04:23:66
FILE "08 - What I See In You.wav" WAVE
INDEX 01 00:00:00
TRACK 09 AUDIO
TITLE "Simple Message"
PERFORMER "Gwendolyn Joy"
INDEX 00 06:10:25
FILE "09 - Simple Message.wav" WAVE
INDEX 01 00:00:00
TRACK 10 AUDIO
TITLE "Up & Down"
PERFORMER "Gwendolyn Joy"
INDEX 00 04:34:26
FILE "10 - Up & Down.wav" WAVE
INDEX 01 00:00:00
TRACK 11 AUDIO
TITLE "Where Do We Go From Here"
PERFORMER "Gwendolyn Joy"
INDEX 00 04:37:41
FILE "11 - Where Do We Go From Here.wav" WAVE
INDEX 01 00:00:00
TRACK 12 AUDIO
TITLE "Love Is..."
PERFORMER "Gwendolyn Joy"
INDEX 00 05:04:22
FILE "12 - Love Is....wav" WAVE
INDEX 01 00:00:00
Приватный:
Нет (DHT включён)
Размер:
531.47 Мб (557,288,327 байт) » файлов: 24
Участники:
0 раздают, 0 качают (0 участников всего)
Внешние участники:
1 раздают, 0 качают (1 участников всего) [ Обновить ]
Есть вопросы - пишите личное сообщение пользователю M0p94ok.
04:36
85
Нет комментариев. Ваш будет первым!