Поиск

(Funk, Soul, R&B, Blues) [CD] War - Evolutionary (2CD) - 2014, FLAC (tracks+.cue), lossless

(Funk, Soul, R&B, Blues) [CD] War - Evolutionary (2CD) - 2014, FLAC (tracks+.cue), lossless
Треклист:
War / Evolutionary (2CD)
Жанр: Funk, Soul, R&B, Blues
Носитель: CD
Страна-производитель диска (релиза): USA
Год издания: 2014
Издатель (лейбл): UMe
Номер по каталогу: B0020529-02
Аудиокодек: FLAC (*.flac)
Тип рипа: tracks+.cue
Битрейт аудио: lossless
Продолжительность: 01:51:57
Источник (релизер): maxblues
Наличие сканов в содержимом раздачи: да
 
CD 1 Evolutionary
01. That L.A. Sunshine
02. Mamacita
03. It's Our Right/Funky Tonk
04. Just Like Us
05. Inspiration
06. Scream Stream
07. This Funky Music
08. Outer Space
09. War / War After War (A Soldier's Story)
10. Bounce
11. Everything
12. It's My Life
13. That L.A. Sunshine (featuring Cheech & Chong)
 
Лог создания рипа
CUERipper v2.1.5 Copyright (C) 2008-13 Grigory Chudov
EAC extraction logfile from 17. September 2015, 10:44
War / Evolutionary
Used drive : TSSTcorp CDDVDW SN-208BB Adapter: 1 ID: 0
Read mode : Secure
Utilize accurate stream : Yes
Defeat audio cache : Yes
Make use of C2 pointers : No
Read offset correction : 8
Overread into Lead-In and Lead-Out : No
Fill up missing offset samples with silence : Yes
Delete leading and trailing silent blocks : No
Null samples used in CRC calculations : Yes
Used interface : Native Win32 interface for Win NT & 2000
Gap handling : Appended to previous track
Used output format : Internal WAV Routines
Sample format : 44.100 Hz; 16 Bit; Stereo
TOC of the extracted CD
Track | Start | Length | Start sector | End sector
---------------------------------------------------------
1 | 0:00.00 | 5:31.06 | 0 | 24830
2 | 5:31.06 | 4:29.31 | 24831 | 45036
3 | 10:00.37 | 9:20.60 | 45037 | 87096
4 | 19:21.22 | 6:31.15 | 87097 | 116436
5 | 25:52.37 | 4:15.13 | 116437 | 135574
6 | 30:07.50 | 5:24.25 | 135575 | 159899
7 | 35:32.00 | 3:23.47 | 159900 | 175171
8 | 38:55.47 | 4:16.59 | 175172 | 194430
9 | 43:12.31 | 5:16.17 | 194431 | 218147
10 | 48:28.48 | 4:21.49 | 218148 | 237771
11 | 52:50.22 | 3:31.14 | 237772 | 253610
12 | 56:21.36 | 7:57.12 | 253611 | 289397
13 | 64:18.48 | 5:29.41 | 289398 | 314113
Track 1
Filename C:\Users\max\Music\War\2014 - Evolutionary\01. That L.A. Sunshine.wav
Pre-gap length 0:00:02.00
Peak level 99.9 %
Track quality 100.0 %
Copy CRC D9CBAC5E
Cannot be verified as accurate (confidence 11) [CBEB0EB4], AccurateRip returned [A67D90D0]
Copy OK
Track 2
Filename C:\Users\max\Music\War\2014 - Evolutionary\02. Mamacita.wav
Peak level 99.9 %
Track quality 100.0 %
Copy CRC A06AF990
Cannot be verified as accurate (confidence 11) [C436B941], AccurateRip returned [6BA39B4B]
Copy OK
Track 3
Filename C:\Users\max\Music\War\2014 - Evolutionary\03. It's Our Right _ Funky Tonk.wav
Peak level 99.9 %
Track quality 100.0 %
Copy CRC 204D16F1
Cannot be verified as accurate (confidence 11) [A03272AF], AccurateRip returned [0EB22CFE]
Copy OK
Track 4
Filename C:\Users\max\Music\War\2014 - Evolutionary\04. Just Like Us.wav
Peak level 99.9 %
Track quality 100.0 %
Copy CRC 67A06A19
Cannot be verified as accurate (confidence 11) [D5B0BA82], AccurateRip returned [7A8B7B8C]
Copy OK
Track 5
Filename C:\Users\max\Music\War\2014 - Evolutionary\05. Inspiration.wav
Peak level 99.9 %
Track quality 100.0 %
Copy CRC 6AF16356
Cannot be verified as accurate (confidence 11) [152990A4], AccurateRip returned [AF2AA6A1]
Copy OK
Track 6
Filename C:\Users\max\Music\War\2014 - Evolutionary\06. Scream Stream.wav
Peak level 99.9 %
Track quality 100.0 %
Copy CRC 754AB0B8
Cannot be verified as accurate (confidence 11) [850C5BA3], AccurateRip returned [F7021AD7]
Copy OK
Track 7
Filename C:\Users\max\Music\War\2014 - Evolutionary\07. This Funky Music.wav
Peak level 99.9 %
Track quality 100.0 %
Copy CRC 846EF2DC
Cannot be verified as accurate (confidence 11) [290714BD], AccurateRip returned [50C3CF4A]
Copy OK
Track 8
Filename C:\Users\max\Music\War\2014 - Evolutionary\08. Outer Space.wav
Peak level 99.1 %
Track quality 100.0 %
Copy CRC 59265B77
Cannot be verified as accurate (confidence 11) [BB8205D5], AccurateRip returned [A8DD2BFA]
Copy OK
Track 9
Filename C:\Users\max\Music\War\2014 - Evolutionary\09. War _ War After War (A Soldier's Story).wav
Peak level 99.9 %
Track quality 100.0 %
Copy CRC E3E6D1B8
Cannot be verified as accurate (confidence 11) [AE049623], AccurateRip returned [F07E08CF]
Copy OK
Track 10
Filename C:\Users\max\Music\War\2014 - Evolutionary\10. Bounce.wav
Peak level 99.9 %
Track quality 100.0 %
Copy CRC F5809BE9
Cannot be verified as accurate (confidence 10) [8FC6C406], AccurateRip returned [F839367F]
Copy OK
Track 11
Filename C:\Users\max\Music\War\2014 - Evolutionary\11. Everything.wav
Peak level 99.9 %
Track quality 100.0 %
Copy CRC EFF00F05
Cannot be verified as accurate (confidence 11) [BB0FB01E], AccurateRip returned [9FFE566F]
Copy OK
Track 12
Filename C:\Users\max\Music\War\2014 - Evolutionary\12. It's My Life.wav
Peak level 99.9 %
Track quality 100.0 %
Copy CRC 0C9A453D
Cannot be verified as accurate (confidence 11) [54144C3B], AccurateRip returned [9F02BD7A]
Copy OK
Track 13
Filename C:\Users\max\Music\War\2014 - Evolutionary\13. That L.A. Sunshine.wav
Peak level 99.9 %
Track quality 100.0 %
Copy CRC 4345F404
Cannot be verified as accurate (confidence 9) [2275A6AF], AccurateRip returned [38999794]
Copy OK
No tracks could be verified as accurate
You may have a different pressing from the one(s) in the database
No errors occurred
End of status report
 
Содержание индексной карты (.CUE)
REM DISCID A7105C0D
PERFORMER "War"
TITLE "Evolutionary"
CATALOG 0602537834839
REM DATE 2014
REM DISCNUMBER 1
REM TOTALDISCS 2
REM COMMENT "CUERipper v2.1.5 Copyright (C) 2008-13 Grigory Chudov"
FILE "01. That L.A. Sunshine.flac" WAVE
TRACK 01 AUDIO
FLAGS DCP
PERFORMER "War feat. USC Trojan Marching Band & L.A. Fats"
TITLE "That L.A. Sunshine"
ISRC USUG11400259
INDEX 01 00:00:00
FILE "02. Mamacita.flac" WAVE
TRACK 02 AUDIO
FLAGS DCP
PERFORMER "War feat. Joe Walsh & The Tower of Power Horns"
TITLE "Mamacita"
ISRC USUG11400260
INDEX 01 00:00:00
FILE "03. It's Our Right _ Funky Tonk.flac" WAVE
TRACK 03 AUDIO
FLAGS DCP
PERFORMER "War"
TITLE "It's Our Right / Funky Tonk"
ISRC USUG11400262
INDEX 01 00:00:00
FILE "04. Just Like Us.flac" WAVE
TRACK 04 AUDIO
FLAGS DCP
PERFORMER "War"
TITLE "Just Like Us"
ISRC USUG11400261
INDEX 01 00:00:00
FILE "05. Inspiration.flac" WAVE
TRACK 05 AUDIO
FLAGS DCP
PERFORMER "War"
TITLE "Inspiration"
ISRC USUG11400263
INDEX 01 00:00:00
FILE "06. Scream Stream.flac" WAVE
TRACK 06 AUDIO
FLAGS DCP
PERFORMER "War"
TITLE "Scream Stream"
ISRC USUG11400264
INDEX 01 00:00:00
FILE "07. This Funky Music.flac" WAVE
TRACK 07 AUDIO
FLAGS DCP
PERFORMER "War"
TITLE "This Funky Music"
ISRC USUG11400265
INDEX 01 00:00:00
FILE "08. Outer Space.flac" WAVE
TRACK 08 AUDIO
FLAGS DCP
PERFORMER "War"
TITLE "Outer Space"
ISRC USUG11400266
INDEX 01 00:00:00
FILE "09. War _ War After War (A Soldier's Story).flac" WAVE
TRACK 09 AUDIO
FLAGS DCP
PERFORMER "War feat. USC Trojan Marching Band & Malik Yusef"
TITLE "War / War After War (A Soldier's Story)"
ISRC USUG11400267
INDEX 01 00:00:00
FILE "10. Bounce.flac" WAVE
TRACK 10 AUDIO
FLAGS DCP
PERFORMER "War"
TITLE "Bounce"
ISRC USUG11400268
INDEX 01 00:00:00
FILE "11. Everything.flac" WAVE
TRACK 11 AUDIO
FLAGS DCP
PERFORMER "War"
TITLE "Everything"
ISRC USUG11400269
INDEX 01 00:00:00
FILE "12. It's My Life.flac" WAVE
TRACK 12 AUDIO
FLAGS DCP
PERFORMER "War"
TITLE "It's My Life"
ISRC USUG11400270
INDEX 01 00:00:00
FILE "13. That L.A. Sunshine.flac" WAVE
TRACK 13 AUDIO
FLAGS DCP
PERFORMER "War feat. Cheech & Chong"
TITLE "That L.A. Sunshine"
ISRC USUG11400271
INDEX 01 00:00:00
 
Лог проверки качества
-----------------------
DON'T MODIFY THIS FILE
-----------------------
Performer: auCDtect Task Manager
Copyright (c) 2008, 2009 y-soft. All rights reserved
File: 01. That L.A. Sunshine.flac
Packed/unpacked size: 40294347/58402556
MD5: 3196A6D63A5AB438B4BFC279EDED3510/F80A7CFA27AC428B3EA10438B5010A60
Analizer: auCDtect: CD records authenticity detector, version 0.8.2
Copyright (c) 2004 Oleg Berngardt. All rights reserved.
Copyright (c) 2004 Alexander Djourik. All rights reserved.
Accuracy: -m8
Conclusion: This track looks like CDDA with probability 62%
Log Check Sum: A07C81496018A46BAE239B010965D606BA2EB699
--------------------CUT HERE--------------------
-----------------------
DON'T MODIFY THIS FILE
-----------------------
Performer: auCDtect Task Manager
Copyright (c) 2008, 2009 y-soft. All rights reserved
File: 02. Mamacita.flac
Packed/unpacked size: 33669365/47524556
MD5: 17E97A1706862E1F34E0671EF0B84E3D/00A79703CC53AD5F898B155761FC5FA0
Analizer: auCDtect: CD records authenticity detector, version 0.8.2
Copyright (c) 2004 Oleg Berngardt. All rights reserved.
Copyright (c) 2004 Alexander Djourik. All rights reserved.
Accuracy: -m8
Conclusion: This track looks like CDDA with probability 43%
Log Check Sum: 51C8EFE681B4BC4EA1D677861867B398AC2F5B40
--------------------CUT HERE--------------------
-----------------------
DON'T MODIFY THIS FILE
-----------------------
Performer: auCDtect Task Manager
Copyright (c) 2008, 2009 y-soft. All rights reserved
File: 04. Just Like Us.flac
Packed/unpacked size: 43931711/69007724
MD5: C0E52DC01C81129EA09B345BD8C5E0B2/3919478BFEF4F9ACEC9A286223338031
Analizer: auCDtect: CD records authenticity detector, version 0.8.2
Copyright (c) 2004 Oleg Berngardt. All rights reserved.
Copyright (c) 2004 Alexander Djourik. All rights reserved.
Accuracy: -m8
Conclusion: This track looks like CDDA with probability 99%
Log Check Sum: 88EA800D1E0D88A87043CF4591A12499A1E0FD36
--------------------CUT HERE--------------------
-----------------------
DON'T MODIFY THIS FILE
-----------------------
Performer: auCDtect Task Manager
Copyright (c) 2008, 2009 y-soft. All rights reserved
File: 05. Inspiration.flac
Packed/unpacked size: 32705566/45012620
MD5: 6445BD93907DCA0592C04FA866E2293B/A1046148570F973DFE6D4584A8FFA17E
Analizer: auCDtect: CD records authenticity detector, version 0.8.2
Copyright (c) 2004 Oleg Berngardt. All rights reserved.
Copyright (c) 2004 Alexander Djourik. All rights reserved.
Accuracy: -m8
Conclusion: This track looks like CDDA with probability 100%
Log Check Sum: 8BF804DBDC7EE336B176F9351E7AB3C3824CD111
--------------------CUT HERE--------------------
-----------------------
DON'T MODIFY THIS FILE
-----------------------
Performer: auCDtect Task Manager
Copyright (c) 2008, 2009 y-soft. All rights reserved
File: 03. It's Our Right _ Funky Tonk.flac
Packed/unpacked size: 60409878/98925164
MD5: 68FD9D6E93676BDFA6559AD7AFD3E92E/A9082BCEFE2D76A815E67FD5F2A27724
Analizer: auCDtect: CD records authenticity detector, version 0.8.2
Copyright (c) 2004 Oleg Berngardt. All rights reserved.
Copyright (c) 2004 Alexander Djourik. All rights reserved.
Accuracy: -m8
Conclusion: This track looks like CDDA with probability 49%
Log Check Sum: A8794057DF1BFF1F80F1344FB1E9DEA4E7264C27
--------------------CUT HERE--------------------
-----------------------
DON'T MODIFY THIS FILE
-----------------------
Performer: auCDtect Task Manager
Copyright (c) 2008, 2009 y-soft. All rights reserved
File: 06. Scream Stream.flac
Packed/unpacked size: 36846231/57212444
MD5: 9047E02C213D81C1C6E0257EA561EC03/521600231059F44F412E2313E20CD731
Analizer: auCDtect: CD records authenticity detector, version 0.8.2
Copyright (c) 2004 Oleg Berngardt. All rights reserved.
Copyright (c) 2004 Alexander Djourik. All rights reserved.
Accuracy: -m8
Conclusion: This track looks like CDDA with probability 43%
Log Check Sum: 74258C339D3C4C6A20409860A0871325E1E40F4F
--------------------CUT HERE--------------------
-----------------------
DON'T MODIFY THIS FILE
-----------------------
Performer: auCDtect Task Manager
Copyright (c) 2008, 2009 y-soft. All rights reserved
File: 07. This Funky Music.flac
Packed/unpacked size: 24588178/35919788
MD5: 779B7C67C9AF735091F7A1B62174E0C1/A6266F45F1B0CF37822909166A1C067A
Analizer: auCDtect: CD records authenticity detector, version 0.8.2
Copyright (c) 2004 Oleg Berngardt. All rights reserved.
Copyright (c) 2004 Alexander Djourik. All rights reserved.
Accuracy: -m8
Conclusion: This track looks like CDDA with probability 42%
Log Check Sum: 3125FA4CA7B9EBAE92A2301714EB7ACE6E9EF43A
--------------------CUT HERE--------------------
-----------------------
DON'T MODIFY THIS FILE
-----------------------
Performer: auCDtect Task Manager
Copyright (c) 2008, 2009 y-soft. All rights reserved
File: 08. Outer Space.flac
Packed/unpacked size: 30804484/45297212
MD5: 8A9F9F7E59D29CC082C7E69F02A5E3C5/392A2E99858C9ABD37E1360F689517C5
Analizer: auCDtect: CD records authenticity detector, version 0.8.2
Copyright (c) 2004 Oleg Berngardt. All rights reserved.
Copyright (c) 2004 Alexander Djourik. All rights reserved.
Accuracy: -m8
Conclusion: This track looks like CDDA with probability 100%
Log Check Sum: DA57CE27C630764403B68957845AF3684BCF928A
--------------------CUT HERE--------------------
-----------------------
DON'T MODIFY THIS FILE
-----------------------
Performer: auCDtect Task Manager
Copyright (c) 2008, 2009 y-soft. All rights reserved
File: 09. War _ War After War (A Soldier's Story).flac
Packed/unpacked size: 36386019/55782428
MD5: E9559139EC829EA782A03AB9B3872B59/1F84E61AAEC74CC9F573224079299DAE
Analizer: auCDtect: CD records authenticity detector, version 0.8.2
Copyright (c) 2004 Oleg Berngardt. All rights reserved.
Copyright (c) 2004 Alexander Djourik. All rights reserved.
Accuracy: -m8
Conclusion: This track looks like CDDA with probability 100%
Log Check Sum: A93E7749C055247F84BCA2A3F7D412A4397FC965
--------------------CUT HERE--------------------
-----------------------
DON'T MODIFY THIS FILE
-----------------------
Performer: auCDtect Task Manager
Copyright (c) 2008, 2009 y-soft. All rights reserved
File: 10. Bounce.flac
Packed/unpacked size: 30296130/46155692
MD5: 690B6EFCC81E1985035F6C3ADCE3DAE6/5B1FB41EDAAEC6243113E6CBACDE2EEA
Analizer: auCDtect: CD records authenticity detector, version 0.8.2
Copyright (c) 2004 Oleg Berngardt. All rights reserved.
Copyright (c) 2004 Alexander Djourik. All rights reserved.
Accuracy: -m8
Conclusion: This track looks like CDDA with probability 100%
Log Check Sum: D52EB86350BBCA1083454EC544096E38B8C68126
--------------------CUT HERE--------------------
-----------------------
DON'T MODIFY THIS FILE
-----------------------
Performer: auCDtect Task Manager
Copyright (c) 2008, 2009 y-soft. All rights reserved
File: 11. Everything.flac
Packed/unpacked size: 25505566/37253372
MD5: 146AC4840CEF74694ED0808ABAD439D9/6BBB61B2D42B860B18E6CBEA0DC2B183
Analizer: auCDtect: CD records authenticity detector, version 0.8.2
Copyright (c) 2004 Oleg Berngardt. All rights reserved.
Copyright (c) 2004 Alexander Djourik. All rights reserved.
Accuracy: -m8
Conclusion: This track looks like CDDA with probability 99%
Log Check Sum: 32F926E3F925E58BC056EADA2215BE57E902A859
--------------------CUT HERE--------------------
-----------------------
DON'T MODIFY THIS FILE
-----------------------
Performer: auCDtect Task Manager
Copyright (c) 2008, 2009 y-soft. All rights reserved
File: 13. That L.A. Sunshine.flac
Packed/unpacked size: 40521682/58132076
MD5: 435BE0558AC187A401C612C79914E6F2/3EF83230E3386F7D6427D197FDB7B793
Analizer: auCDtect: CD records authenticity detector, version 0.8.2
Copyright (c) 2004 Oleg Berngardt. All rights reserved.
Copyright (c) 2004 Alexander Djourik. All rights reserved.
Accuracy: -m8
Conclusion: This track looks like CDDA with probability 100%
Log Check Sum: 19078E8D95620FDE80413425F442FCA9AC113786
--------------------CUT HERE--------------------
-----------------------
DON'T MODIFY THIS FILE
-----------------------
Performer: auCDtect Task Manager
Copyright (c) 2008, 2009 y-soft. All rights reserved
File: 12. It's My Life.flac
Packed/unpacked size: 54525590/84171068
MD5: 39B051F82AD129ECFC24B71D6B81EF77/422692CECF7D2DCDD1F18345C0EE181B
Analizer: auCDtect: CD records authenticity detector, version 0.8.2
Copyright (c) 2004 Oleg Berngardt. All rights reserved.
Copyright (c) 2004 Alexander Djourik. All rights reserved.
Accuracy: -m8
Conclusion: This track looks like CDDA with probability 100%
Log Check Sum: B4FA1F4663E9E5C562A94D15BF15258577855018
 
CD 2 Greatest Hits Remastered
01. All Day Music
02. Slippin' Into Darkness
03. The World Is A Ghetto
04. The Cisco Kid
05. Gypsy Man
06. Me And Baby Brother
07. Southern Part Of Texas
08. Why Can't We Be Friends?
09. Low Rider
10. Summer
 
Лог создания рипа
CUERipper v2.1.5 Copyright (C) 2008-13 Grigory Chudov
EAC extraction logfile from 17. September 2015, 10:56
War / Evolutionary
Used drive : TSSTcorp CDDVDW SN-208BB Adapter: 1 ID: 0
Read mode : Secure
Utilize accurate stream : Yes
Defeat audio cache : Yes
Make use of C2 pointers : No
Read offset correction : 8
Overread into Lead-In and Lead-Out : No
Fill up missing offset samples with silence : Yes
Delete leading and trailing silent blocks : No
Null samples used in CRC calculations : Yes
Used interface : Native Win32 interface for Win NT & 2000
Gap handling : Appended to previous track
Used output format : Internal WAV Routines
Sample format : 44.100 Hz; 16 Bit; Stereo
TOC of the extracted CD
Track | Start | Length | Start sector | End sector
---------------------------------------------------------
1 | 0:00.00 | 3:59.22 | 0 | 17946
2 | 3:59.22 | 3:47.28 | 17947 | 34999
3 | 7:46.50 | 4:08.63 | 35000 | 53662
4 | 11:55.38 | 3:47.54 | 53663 | 70741
5 | 15:43.17 | 5:23.51 | 70742 | 95017
6 | 21:06.68 | 3:30.31 | 95018 | 110798
7 | 24:37.24 | 3:53.27 | 110799 | 128300
8 | 28:30.51 | 3:48.14 | 128301 | 145414
9 | 32:18.65 | 3:10.73 | 145415 | 159737
10 | 35:29.63 | 6:39.03 | 159738 | 189665
Track 1
Filename C:\Users\max\Music\War\2014 - Evolutionary\01. All Day Music.wav
Pre-gap length 0:00:02.00
Peak level 87.9 %
Track quality 100.0 %
Copy CRC A5F6FF39
Cannot be verified as accurate (confidence 11) [7A836830], AccurateRip returned [C4B7E9D8]
Copy OK
Track 2
Filename C:\Users\max\Music\War\2014 - Evolutionary\02. Slippin' Into Darkness.wav
Peak level 100.0 %
Track quality 100.0 %
Copy CRC 5DC64A9E
Cannot be verified as accurate (confidence 11) [49B75B54], AccurateRip returned [D4CFB3FC]
Copy OK
Track 3
Filename C:\Users\max\Music\War\2014 - Evolutionary\03. The World Is a Ghetto.wav
Peak level 94.0 %
Track quality 100.0 %
Copy CRC 15DC9A8C
Cannot be verified as accurate (confidence 11) [220AAFB7], AccurateRip returned [6853B750]
Copy OK
Track 4
Filename C:\Users\max\Music\War\2014 - Evolutionary\04. The Cisco Kid.wav
Peak level 94.0 %
Track quality 100.0 %
Copy CRC 3A44C7B6
Cannot be verified as accurate (confidence 11) [749DE19B], AccurateRip returned [3BAC527B]
Copy OK
Track 5
Filename C:\Users\max\Music\War\2014 - Evolutionary\05. Gypsy Man.wav
Peak level 94.7 %
Track quality 100.0 %
Copy CRC 80BFE5BC
Cannot be verified as accurate (confidence 11) [3E19E9F8], AccurateRip returned [647750F4]
Copy OK
Track 6
Filename C:\Users\max\Music\War\2014 - Evolutionary\06. Me and Baby Brother.wav
Peak level 100.0 %
Track quality 100.0 %
Copy CRC 9100F761
Cannot be verified as accurate (confidence 11) [AAEC09D3], AccurateRip returned [DB9A465A]
Copy OK
Track 7
Filename C:\Users\max\Music\War\2014 - Evolutionary\07. Southern Part of Texas.wav
Peak level 100.0 %
Track quality 100.0 %
Copy CRC 161438DD
Cannot be verified as accurate (confidence 10) [0AD03822], AccurateRip returned [E3F0B34C]
Copy OK
Track 8
Filename C:\Users\max\Music\War\2014 - Evolutionary\08. Why Can't We Be Friends_.wav
Peak level 100.0 %
Track quality 100.0 %
Copy CRC 4D789FAD
Cannot be verified as accurate (confidence 10) [3C4401CE], AccurateRip returned [105C7968]
Copy OK
Track 9
Filename C:\Users\max\Music\War\2014 - Evolutionary\09. Low Rider.wav
Peak level 100.0 %
Track quality 100.0 %
Copy CRC 0732466C
Cannot be verified as accurate (confidence 10) [060EF78A], AccurateRip returned [5AEC1DA7]
Copy OK
Track 10
Filename C:\Users\max\Music\War\2014 - Evolutionary\10. Summer.wav
Peak level 94.7 %
Track quality 100.0 %
Copy CRC 70F52193
Cannot be verified as accurate (confidence 10) [31E5F3FD], AccurateRip returned [48FFF1C5]
Copy OK
No tracks could be verified as accurate
You may have a different pressing from the one(s) in the database
No errors occurred
End of status report
 
Содержание индексной карты (.CUE)
REM DISCID 8209E00A
PERFORMER "War"
TITLE "Evolutionary"
CATALOG 0602537834846
REM DATE 2014
REM DISCNUMBER 2
REM TOTALDISCS 2
REM COMMENT "CUERipper v2.1.5 Copyright (C) 2008-13 Grigory Chudov"
FILE "01. All Day Music.flac" WAVE
TRACK 01 AUDIO
FLAGS DCP
PERFORMER "War"
TITLE "All Day Music"
ISRC USRHD0702922
INDEX 01 00:00:00
FILE "02. Slippin' Into Darkness.flac" WAVE
TRACK 02 AUDIO
FLAGS DCP
PERFORMER "War"
TITLE "Slippin' Into Darkness"
ISRC USRHD0703048
INDEX 01 00:00:00
FILE "03. The World Is a Ghetto.flac" WAVE
TRACK 03 AUDIO
FLAGS DCP
PERFORMER "War"
TITLE "The World Is a Ghetto"
ISRC USUG11004314
INDEX 01 00:00:00
FILE "04. The Cisco Kid.flac" WAVE
TRACK 04 AUDIO
FLAGS DCP
PERFORMER "War"
TITLE "The Cisco Kid"
ISRC USRHD0703070
INDEX 01 00:00:00
FILE "05. Gypsy Man.flac" WAVE
TRACK 05 AUDIO
FLAGS DCP
PERFORMER "War"
TITLE "Gypsy Man"
ISRC USUG11004310
INDEX 01 00:00:00
FILE "06. Me and Baby Brother.flac" WAVE
TRACK 06 AUDIO
FLAGS DCP
PERFORMER "War"
TITLE "Me and Baby Brother"
ISRC USRHD0702940
INDEX 01 00:00:00
FILE "07. Southern Part of Texas.flac" WAVE
TRACK 07 AUDIO
FLAGS DCP
PERFORMER "War"
TITLE "Southern Part of Texas"
ISRC USRHD0703056
INDEX 01 00:00:00
FILE "08. Why Can't We Be Friends_.flac" WAVE
TRACK 08 AUDIO
FLAGS DCP
PERFORMER "War"
TITLE "Why Can't We Be Friends?"
ISRC USHR10421422
INDEX 01 00:00:00
FILE "09. Low Rider.flac" WAVE
TRACK 09 AUDIO
FLAGS DCP
PERFORMER "War"
TITLE "Low Rider"
ISRC USRHD0610212
INDEX 01 00:00:00
FILE "10. Summer.flac" WAVE
TRACK 10 AUDIO
FLAGS DCP
PERFORMER "War"
TITLE "Summer"
ISRC USUG11004313
INDEX 01 00:00:00
 
Лог проверки качества
-----------------------
DON'T MODIFY THIS FILE
-----------------------
Performer: auCDtect Task Manager
Copyright (c) 2008, 2009 y-soft. All rights reserved
File: 02. Slippin' Into Darkness.flac
Packed/unpacked size: 27043194/40108700
MD5: 7AB050CD6B0B810477AB4C7662D9F3C1/5A0BB19DD33EEA875646906EAC182BBD
Analizer: auCDtect: CD records authenticity detector, version 0.8.2
Copyright (c) 2004 Oleg Berngardt. All rights reserved.
Copyright (c) 2004 Alexander Djourik. All rights reserved.
Accuracy: -m8
Conclusion: This track looks like CDDA with probability 100%
Log Check Sum: 3B25405D97663E34E7847E7222396117D56A46B8
--------------------CUT HERE--------------------
-----------------------
DON'T MODIFY THIS FILE
-----------------------
Performer: auCDtect Task Manager
Copyright (c) 2008, 2009 y-soft. All rights reserved
File: 01. All Day Music.flac
Packed/unpacked size: 26120727/42211388
MD5: 3A2077EA5ABA28C0976D8314E34716A4/28DCAB82C9C4BE81B4DB122384EBC7DF
Analizer: auCDtect: CD records authenticity detector, version 0.8.2
Copyright (c) 2004 Oleg Berngardt. All rights reserved.
Copyright (c) 2004 Alexander Djourik. All rights reserved.
Accuracy: -m8
Conclusion: This track looks like CDDA with probability 100%
Log Check Sum: 832FB58C27676096B1842E4E85796CDCAE5AC791
--------------------CUT HERE--------------------
-----------------------
DON'T MODIFY THIS FILE
-----------------------
Performer: auCDtect Task Manager
Copyright (c) 2008, 2009 y-soft. All rights reserved
File: 03. The World Is a Ghetto.flac
Packed/unpacked size: 24840840/43895420
MD5: BBBAC91F7AA5A32E442A4F6E1224363B/2644DBB8E5330118808CA4F7FD25E967
Analizer: auCDtect: CD records authenticity detector, version 0.8.2
Copyright (c) 2004 Oleg Berngardt. All rights reserved.
Copyright (c) 2004 Alexander Djourik. All rights reserved.
Accuracy: -m8
Conclusion: This track looks like CDDA with probability 100%
Log Check Sum: 899A4E27A99F3A63F09C7463C0302BE23D5653BE
--------------------CUT HERE--------------------
-----------------------
DON'T MODIFY THIS FILE
-----------------------
Performer: auCDtect Task Manager
Copyright (c) 2008, 2009 y-soft. All rights reserved
File: 04. The Cisco Kid.flac
Packed/unpacked size: 24862690/40169852
MD5: 5E1B62864505BA6ACE2B40B0F72D4E68/26299A8D77940E3469528546D60E4D83
Analizer: auCDtect: CD records authenticity detector, version 0.8.2
Copyright (c) 2004 Oleg Berngardt. All rights reserved.
Copyright (c) 2004 Alexander Djourik. All rights reserved.
Accuracy: -m8
Conclusion: This track looks like CDDA with probability 100%
Log Check Sum: 0C4DE9A263C9ED7F0AA871D4719FD68E05CC2AF1
--------------------CUT HERE--------------------
-----------------------
DON'T MODIFY THIS FILE
-----------------------
Performer: auCDtect Task Manager
Copyright (c) 2008, 2009 y-soft. All rights reserved
File: 05. Gypsy Man.flac
Packed/unpacked size: 35216102/57097196
MD5: 5BEF4872A3913B5688BC81AC3886BBDF/159275CCB63453AE4E266B7FEEC81CC6
Analizer: auCDtect: CD records authenticity detector, version 0.8.2
Copyright (c) 2004 Oleg Berngardt. All rights reserved.
Copyright (c) 2004 Alexander Djourik. All rights reserved.
Accuracy: -m8
Conclusion: This track looks like CDDA with probability 100%
Log Check Sum: 215491F5C2C44F7F46ED0C2B0714883ED3E44C69
--------------------CUT HERE--------------------
-----------------------
DON'T MODIFY THIS FILE
-----------------------
Performer: auCDtect Task Manager
Copyright (c) 2008, 2009 y-soft. All rights reserved
File: 06. Me and Baby Brother.flac
Packed/unpacked size: 25496436/37116956
MD5: F1741643AC113BB95FAC55933FF27770/3E882673ECC4EC442402676810D89418
Analizer: auCDtect: CD records authenticity detector, version 0.8.2
Copyright (c) 2004 Oleg Berngardt. All rights reserved.
Copyright (c) 2004 Alexander Djourik. All rights reserved.
Accuracy: -m8
Conclusion: This track looks like CDDA with probability 100%
Log Check Sum: 4BFAB1A680C465CF2233AC4E6F7067DDA5AF2954
--------------------CUT HERE--------------------
-----------------------
DON'T MODIFY THIS FILE
-----------------------
Performer: auCDtect Task Manager
Copyright (c) 2008, 2009 y-soft. All rights reserved
File: 07. Southern Part of Texas.flac
Packed/unpacked size: 25105350/41164748
MD5: 05DE71D2A28D8558AE18730C4A2FF178/0F84FFAAD26E99E4C72524A2F8D46C1C
Analizer: auCDtect: CD records authenticity detector, version 0.8.2
Copyright (c) 2004 Oleg Berngardt. All rights reserved.
Copyright (c) 2004 Alexander Djourik. All rights reserved.
Accuracy: -m8
Conclusion: This track looks like CDDA with probability 100%
Log Check Sum: CECB794A327EFC7CAC358542F9F9CEF1EFAA7F6F
--------------------CUT HERE--------------------
-----------------------
DON'T MODIFY THIS FILE
-----------------------
Performer: auCDtect Task Manager
Copyright (c) 2008, 2009 y-soft. All rights reserved
File: 08. Why Can't We Be Friends_.flac
Packed/unpacked size: 26079802/40252172
MD5: 786C075348D6B85CE3B6C953AA9A19AF/3D7EB00E2953AB556F921F58BA8BB7EA
Analizer: auCDtect: CD records authenticity detector, version 0.8.2
Copyright (c) 2004 Oleg Berngardt. All rights reserved.
Copyright (c) 2004 Alexander Djourik. All rights reserved.
Accuracy: -m8
Conclusion: This track looks like CDDA with probability 100%
Log Check Sum: CCFF80A00F8718A4D13724A86CE52C4B7A769AA7
--------------------CUT HERE--------------------
-----------------------
DON'T MODIFY THIS FILE
-----------------------
Performer: auCDtect Task Manager
Copyright (c) 2008, 2009 y-soft. All rights reserved
File: 09. Low Rider.flac
Packed/unpacked size: 20693377/33687740
MD5: 0026545157971CD86060BBB258154508/EFE44F636B1440229D7828B7CBD5EB4F
Analizer: auCDtect: CD records authenticity detector, version 0.8.2
Copyright (c) 2004 Oleg Berngardt. All rights reserved.
Copyright (c) 2004 Alexander Djourik. All rights reserved.
Accuracy: -m8
Conclusion: This track looks like CDDA with probability 100%
Log Check Sum: BF7C744D0AD5A1228F729AE88991E0AD9372ABA7
--------------------CUT HERE--------------------
-----------------------
DON'T MODIFY THIS FILE
-----------------------
Performer: auCDtect Task Manager
Copyright (c) 2008, 2009 y-soft. All rights reserved
File: 10. Summer.flac
Packed/unpacked size: 44537217/70390700
MD5: DD09643C7BC732DDC385E6F4C0D9424B/CE471281D13BAABED943B69304EA77FC
Analizer: auCDtect: CD records authenticity detector, version 0.8.2
Copyright (c) 2004 Oleg Berngardt. All rights reserved.
Copyright (c) 2004 Alexander Djourik. All rights reserved.
Accuracy: -m8
Conclusion: This track looks like CDDA with probability 100%
Log Check Sum: 7B9D8EFE341A59211BDDB20C7B49DF1A966CABCD
 
Об альбоме (сборнике)
Double album: half new music, half greatest hits
"Evolutionary" was War's first new studio album in 20 years. Disc One contains new recordings, Disc Two is a remastered reissue of the 1976 Platinum awarded "Greatest Hits" vinyl release
Приватный:
Нет (DHT включён)
Размер:
736.04 Мб (771,798,604 байт) » файлов: 60
Участники:
0 раздают, 0 качают (0 участников всего)
Внешние участники:
5 раздают, 1 качают (6 участников всего) [ Обновить ]
Есть вопросы - пишите личное сообщение пользователю M0p94ok.
07:55
67
Нет комментариев. Ваш будет первым!