Поиск

(Soul, R&B) [CD] Aretha Franklin - Original Recordings - 1999?, FLAC (tracks+.cue), lossless

(Soul, R&B) [CD] Aretha Franklin - Original Recordings - 1999?, FLAC (tracks+.cue), lossless
Треклист:
Aretha Franklin - Original Recordings Жанр: Soul, R&B
Носитель: CD
Год издания: 1999?
Издатель (лейбл): EuroTrend
Номер по каталогу: CD 152.502
Аудиокодек: FLAC (*.flac)
Тип рипа: tracks+.cue
Битрейт аудио: lossless
Продолжительность: 71:18
Источник (релизер): What.cd (relative)
Наличие сканов в содержимом раздачи: сетевые
Треклист:
01. Without Love (2:52)
02. Don't Go Breaking My Heart (3:53)
03. When You Get Right Down To It (3:55)
04. You'll Never Get To Heaven (5:01)
05. With Everything I Feel In Me (3:57)
06. Love Everything About You (3:44)
07. Sing It Again, Say It Again (4:02)
08. All Of These Things (3:47)
09. Stay (6:20)
10. He Will Wash You White As Snow (4:18)
11. I Never Loved A Man The Way I Love You (2:41)
12. Respect (2:24)
13. A Natural Woman (2:41)
14. Chain Of Fools (2:44)
15. Think (2:15)
16. I Say A Little Prayer (3:30)
17. Share Your Love With Me (3:14)
18. Call Me (Come Back Home) (3:49)
19. Don't Play That Song (You Lied) (2:55)
20. Sister From Texas (3:14)
 
 
Лог создания рипа
Exact Audio Copy V1.0 beta 4 from 7. December 2014
EAC extraction logfile from 23. January 2015, 7:16
Aretha Franklin / Original Recordings
Used drive : PIONEER DVD-RW DVR-221 Adapter: 1 ID: 0
Read mode : Secure
Utilize accurate stream : Yes
Defeat audio cache : Yes
Make use of C2 pointers : No
Read offset correction : 6
Overread into Lead-In and Lead-Out : No
Fill up missing offset samples with silence : Yes
Delete leading and trailing silent blocks : No
Null samples used in CRC calculations : Yes
Used interface : Native Win32 interface for Win NT & 2000
Gap handling : Appended to previous track
Used output format : User Defined Encoder
Selected bitrate : 1024 kBit/s
Quality : High
Add ID3 tag : No
Command line compressor : I:\PROGRAMS\08 AUDIO\Exact Audio Copy\FLAC\FLAC.EXE
Additional command line options : -8 -V -T "ARTIST=%artist%" -T "TITLE=%title%" -T "ALBUM=%albumtitle%" -T "DATE=%year%" -T "TRACKNUMBER=%tracknr%" -T "GENRE=%genre%" -T "PERFORMER=%albuminterpret%" -T "COMPOSER=%composer%" %haslyrics%--tag-from-file=LYRICS="%lyricsfile%"%haslyrics% -T "ALBUMARTIST=%albumartist%" -T "DISCNUMBER=%cdnumber%" -T "TOTALDISCS=%totalcds%" -T "TOTALTRACKS=%numtracks%" -T "COMMENT=%comment%" %source% -o %dest%
TOC of the extracted CD
Track | Start | Length | Start sector | End sector
---------------------------------------------------------
1 | 0:01.00 | 2:51.57 | 75 | 12956
2 | 2:52.57 | 3:52.64 | 12957 | 30420
3 | 6:45.46 | 3:55.08 | 30421 | 48053
4 | 10:40.54 | 5:01.10 | 48054 | 70638
5 | 15:41.64 | 3:56.57 | 70639 | 88395
6 | 19:38.46 | 3:44.00 | 88396 | 105195
7 | 23:22.46 | 4:02.07 | 105196 | 123352
8 | 27:24.53 | 3:47.33 | 123353 | 140410
9 | 31:12.11 | 6:19.74 | 140411 | 168909
10 | 37:32.10 | 4:18.02 | 168910 | 188261
11 | 41:50.12 | 2:40.74 | 188262 | 200335
12 | 44:31.11 | 2:24.21 | 200336 | 211156
13 | 46:55.32 | 2:40.52 | 211157 | 223208
14 | 49:36.09 | 2:43.47 | 223209 | 235480
15 | 52:19.56 | 2:15.34 | 235481 | 245639
16 | 54:35.15 | 3:30.23 | 245640 | 261412
17 | 58:05.38 | 3:14.28 | 261413 | 275990
18 | 61:19.66 | 3:49.35 | 275991 | 293200
19 | 65:09.26 | 2:54.68 | 293201 | 306318
20 | 68:04.19 | 3:14.37 | 306319 | 320905
Track 1
Filename I:\WHAT.CD\Aretha Franklin - Original Recordings (xxxx) Flac [CD 152.502]\01 - Without Love.wav
Pre-gap length 0:00:03.00
Peak level 98.8 %
Extraction speed 4.2 X
Track quality 100.0 %
Test CRC FF648557
Copy CRC FF648557
Accurately ripped (confidence 5) [5917AD25] (AR v1)
Copy OK
Track 2
Filename I:\WHAT.CD\Aretha Franklin - Original Recordings (xxxx) Flac [CD 152.502]\02 - Don't Go Breaking My Heart.wav
Pre-gap length 0:00:02.60
Peak level 98.8 %
Extraction speed 5.1 X
Track quality 100.0 %
Test CRC B484BD16
Copy CRC B484BD16
Accurately ripped (confidence 5) [2AB46B6A] (AR v1)
Copy OK
Track 3
Filename I:\WHAT.CD\Aretha Franklin - Original Recordings (xxxx) Flac [CD 152.502]\03 - When You Get Right Down To It.wav
Pre-gap length 0:00:02.60
Peak level 97.7 %
Extraction speed 5.6 X
Track quality 100.0 %
Test CRC F477DFFD
Copy CRC F477DFFD
Accurately ripped (confidence 5) [45DB8F2A] (AR v1)
Copy OK
Track 4
Filename I:\WHAT.CD\Aretha Franklin - Original Recordings (xxxx) Flac [CD 152.502]\04 - You'll Never Get To Heaven.wav
Pre-gap length 0:00:02.60
Peak level 98.8 %
Extraction speed 5.2 X
Track quality 99.9 %
Test CRC C0D5F8D3
Copy CRC C0D5F8D3
Accurately ripped (confidence 5) [47A0369E] (AR v1)
Copy OK
Track 5
Filename I:\WHAT.CD\Aretha Franklin - Original Recordings (xxxx) Flac [CD 152.502]\05 - With Everything I Feel In Me.wav
Pre-gap length 0:00:02.60
Peak level 98.8 %
Extraction speed 6.5 X
Track quality 100.0 %
Test CRC B83CF783
Copy CRC B83CF783
Accurately ripped (confidence 5) [F2A13A3B] (AR v1)
Copy OK
Track 6
Filename I:\WHAT.CD\Aretha Franklin - Original Recordings (xxxx) Flac [CD 152.502]\06 - Love Everything About You.wav
Pre-gap length 0:00:02.60
Peak level 98.8 %
Extraction speed 6.6 X
Track quality 100.0 %
Test CRC 7F2D2F96
Copy CRC 7F2D2F96
Accurately ripped (confidence 5) [F80DD725] (AR v1)
Copy OK
Track 7
Filename I:\WHAT.CD\Aretha Franklin - Original Recordings (xxxx) Flac [CD 152.502]\07 - Sing It Again, Say It Again.wav
Pre-gap length 0:00:02.60
Peak level 98.8 %
Extraction speed 7.1 X
Track quality 100.0 %
Test CRC 7DC527A2
Copy CRC 7DC527A2
Accurately ripped (confidence 5) [D7663DA4] (AR v1)
Copy OK
Track 8
Filename I:\WHAT.CD\Aretha Franklin - Original Recordings (xxxx) Flac [CD 152.502]\08 - All Of These Things.wav
Pre-gap length 0:00:02.60
Peak level 98.8 %
Extraction speed 7.3 X
Track quality 100.0 %
Test CRC 354D8669
Copy CRC 354D8669
Accurately ripped (confidence 5) [923CD602] (AR v1)
Copy OK
Track 9
Filename I:\WHAT.CD\Aretha Franklin - Original Recordings (xxxx) Flac [CD 152.502]\09 - Stay.wav
Pre-gap length 0:00:02.60
Peak level 97.7 %
Extraction speed 8.2 X
Track quality 100.0 %
Test CRC 32F1AF1A
Copy CRC 32F1AF1A
Accurately ripped (confidence 5) [2A00535B] (AR v1)
Copy OK
Track 10
Filename I:\WHAT.CD\Aretha Franklin - Original Recordings (xxxx) Flac [CD 152.502]\10 - He Will Wash You White As Snow.wav
Pre-gap length 0:00:02.60
Peak level 97.7 %
Extraction speed 8.2 X
Track quality 100.0 %
Test CRC E8721143
Copy CRC E8721143
Accurately ripped (confidence 5) [593690FD] (AR v1)
Copy OK
Track 11
Filename I:\WHAT.CD\Aretha Franklin - Original Recordings (xxxx) Flac [CD 152.502]\11 - I Never Loved A Man The Way I Love You.wav
Pre-gap length 0:00:02.60
Peak level 97.7 %
Extraction speed 5.9 X
Track quality 99.9 %
Test CRC 0C410018
Copy CRC 0C410018
Accurately ripped (confidence 5) [FE3FDCB8] (AR v1)
Copy OK
Track 12
Filename I:\WHAT.CD\Aretha Franklin - Original Recordings (xxxx) Flac [CD 152.502]\12 - Respect.wav
Pre-gap length 0:00:02.60
Peak level 97.7 %
Extraction speed 7.8 X
Track quality 100.0 %
Test CRC 82E7F3CF
Copy CRC 82E7F3CF
Accurately ripped (confidence 5) [86DE1DA8] (AR v1)
Copy OK
Track 13
Filename I:\WHAT.CD\Aretha Franklin - Original Recordings (xxxx) Flac [CD 152.502]\13 - A Natural Woman.wav
Pre-gap length 0:00:02.60
Peak level 97.7 %
Extraction speed 6.1 X
Track quality 99.9 %
Test CRC A1CCA9C6
Copy CRC A1CCA9C6
Accurately ripped (confidence 5) [E4504789] (AR v1)
Copy OK
Track 14
Filename I:\WHAT.CD\Aretha Franklin - Original Recordings (xxxx) Flac [CD 152.502]\14 - Chain Of Fools.wav
Pre-gap length 0:00:02.60
Peak level 97.7 %
Extraction speed 8.3 X
Track quality 100.0 %
Test CRC FED4D5DC
Copy CRC FED4D5DC
Accurately ripped (confidence 5) [B2566228] (AR v1)
Copy OK
Track 15
Filename I:\WHAT.CD\Aretha Franklin - Original Recordings (xxxx) Flac [CD 152.502]\15 - Think.wav
Pre-gap length 0:00:02.60
Peak level 91.9 %
Extraction speed 5.9 X
Track quality 99.9 %
Test CRC AA294C88
Copy CRC AA294C88
Accurately ripped (confidence 5) [0B26D2FD] (AR v1)
Copy OK
Track 16
Filename I:\WHAT.CD\Aretha Franklin - Original Recordings (xxxx) Flac [CD 152.502]\16 - I Say A Little Prayer.wav
Pre-gap length 0:00:02.60
Peak level 97.7 %
Extraction speed 9.1 X
Track quality 100.0 %
Test CRC 9CB6B063
Copy CRC 9CB6B063
Accurately ripped (confidence 5) [07E3113A] (AR v1)
Copy OK
Track 17
Filename I:\WHAT.CD\Aretha Franklin - Original Recordings (xxxx) Flac [CD 152.502]\17 - Share Your Love With Me.wav
Pre-gap length 0:00:02.60
Peak level 97.7 %
Extraction speed 9.2 X
Track quality 100.0 %
Test CRC 1A44150A
Copy CRC 1A44150A
Accurately ripped (confidence 5) [B21B6B98] (AR v1)
Copy OK
Track 18
Filename I:\WHAT.CD\Aretha Franklin - Original Recordings (xxxx) Flac [CD 152.502]\18 - Call Me (Come Back Home).wav
Pre-gap length 0:00:02.60
Peak level 97.7 %
Extraction speed 9.7 X
Track quality 100.0 %
Test CRC 7B4E6D3E
Copy CRC 7B4E6D3E
Accurately ripped (confidence 5) [186E651E] (AR v1)
Copy OK
Track 19
Filename I:\WHAT.CD\Aretha Franklin - Original Recordings (xxxx) Flac [CD 152.502]\19 - Don't Play That Song (You Lied).wav
Pre-gap length 0:00:02.60
Peak level 97.7 %
Extraction speed 9.2 X
Track quality 100.0 %
Test CRC E7C1E6F2
Copy CRC E7C1E6F2
Accurately ripped (confidence 5) [7FCA6C24] (AR v1)
Copy OK
Track 20
Filename I:\WHAT.CD\Aretha Franklin - Original Recordings (xxxx) Flac [CD 152.502]\20 - Sister From Texas.wav
Pre-gap length 0:00:02.60
Peak level 97.7 %
Extraction speed 9.6 X
Track quality 100.0 %
Test CRC 989F411C
Copy CRC 989F411C
Accurately ripped (confidence 5) [6892E8FA] (AR v1)
Copy OK
All tracks accurately ripped
No errors occurred
End of status report
---- CUETools DB Plugin V2.1.4
[CTDB TOCID: 2LEKSCQCaTaai6OzR5UWZdKKK50-] disk not present in database
Submit result: 2LEKSCQCaTaai6OzR5UWZdKKK50- has been uploaded
==== Log checksum D962E9E093B780662B9191542A2706803E3848B1C31B578FE36E68CB7A25BDB4 ====
 
Содержание индексной карты (.CUE)
REM GENRE Jazz
REM DATE 1999
REM DISCID 2810B514
REM COMMENT "ExactAudioCopy v1.0b4"
CATALOG 0000001525020
PERFORMER "Aretha Franklin"
TITLE "Original Recordings"
FILE "01 - Without Love.wav" WAVE
TRACK 01 AUDIO
TITLE "Without Love"
PERFORMER "Aretha Franklin"
PREGAP 00:01:00
INDEX 01 00:00:00
TRACK 02 AUDIO
TITLE "Don't Go Breaking My Heart"
PERFORMER "Aretha Franklin"
INDEX 00 02:49:12
FILE "02 - Don't Go Breaking My Heart.wav" WAVE
INDEX 01 00:00:00
TRACK 03 AUDIO
TITLE "When You Get Right Down To It"
PERFORMER "Aretha Franklin"
INDEX 00 03:50:19
FILE "03 - When You Get Right Down To It.wav" WAVE
INDEX 01 00:00:00
TRACK 04 AUDIO
TITLE "You'll Never Get To Heaven"
PERFORMER "Aretha Franklin"
INDEX 00 03:52:38
FILE "04 - You'll Never Get To Heaven.wav" WAVE
INDEX 01 00:00:00
TRACK 05 AUDIO
TITLE "With Everything I Feel In Me"
PERFORMER "Aretha Franklin"
INDEX 00 04:58:40
FILE "05 - With Everything I Feel In Me.wav" WAVE
INDEX 01 00:00:00
TRACK 06 AUDIO
TITLE "Love Everything About You"
PERFORMER "Aretha Franklin"
INDEX 00 03:54:12
FILE "06 - Love Everything About You.wav" WAVE
INDEX 01 00:00:00
TRACK 07 AUDIO
TITLE "Sing It Again, Say It Again"
PERFORMER "Aretha Franklin"
INDEX 00 03:41:30
FILE "07 - Sing It Again, Say It Again.wav" WAVE
INDEX 01 00:00:00
TRACK 08 AUDIO
TITLE "All Of These Things"
PERFORMER "Aretha Franklin"
INDEX 00 03:59:37
FILE "08 - All Of These Things.wav" WAVE
INDEX 01 00:00:00
TRACK 09 AUDIO
TITLE "Stay"
PERFORMER "Aretha Franklin"
INDEX 00 03:44:63
FILE "09 - Stay.wav" WAVE
INDEX 01 00:00:00
TRACK 10 AUDIO
TITLE "He Will Wash You White As Snow"
PERFORMER "Aretha Franklin"
INDEX 00 06:17:29
FILE "10 - He Will Wash You White As Snow.wav" WAVE
INDEX 01 00:00:00
TRACK 11 AUDIO
TITLE "I Never Loved A Man The Way I Love You"
PERFORMER "Aretha Franklin"
INDEX 00 04:15:32
FILE "11 - I Never Loved A Man The Way I Love You.wav" WAVE
INDEX 01 00:00:00
TRACK 12 AUDIO
TITLE "Respect"
PERFORMER "Aretha Franklin"
INDEX 00 02:38:29
FILE "12 - Respect.wav" WAVE
INDEX 01 00:00:00
TRACK 13 AUDIO
TITLE "A Natural Woman"
PERFORMER "Aretha Franklin"
INDEX 00 02:21:51
FILE "13 - A Natural Woman.wav" WAVE
INDEX 01 00:00:00
TRACK 14 AUDIO
TITLE "Chain Of Fools"
PERFORMER "Aretha Franklin"
INDEX 00 02:38:07
FILE "14 - Chain Of Fools.wav" WAVE
INDEX 01 00:00:00
TRACK 15 AUDIO
TITLE "Think"
PERFORMER "Aretha Franklin"
INDEX 00 02:41:02
FILE "15 - Think.wav" WAVE
INDEX 01 00:00:00
TRACK 16 AUDIO
TITLE "I Say A Little Prayer"
PERFORMER "Aretha Franklin"
INDEX 00 02:12:64
FILE "16 - I Say A Little Prayer.wav" WAVE
INDEX 01 00:00:00
TRACK 17 AUDIO
TITLE "Share Your Love With Me"
PERFORMER "Aretha Franklin"
INDEX 00 03:27:53
FILE "17 - Share Your Love With Me.wav" WAVE
INDEX 01 00:00:00
TRACK 18 AUDIO
TITLE "Call Me (Come Back Home)"
PERFORMER "Aretha Franklin"
INDEX 00 03:11:58
FILE "18 - Call Me (Come Back Home).wav" WAVE
INDEX 01 00:00:00
TRACK 19 AUDIO
TITLE "Don't Play That Song (You Lied)"
PERFORMER "Aretha Franklin"
INDEX 00 03:46:65
FILE "19 - Don't Play That Song (You Lied).wav" WAVE
INDEX 01 00:00:00
TRACK 20 AUDIO
TITLE "Sister From Texas"
PERFORMER "Aretha Franklin"
INDEX 00 02:52:23
FILE "20 - Sister From Texas.wav" WAVE
INDEX 01 00:00:00
Приватный:
Нет (DHT включён)
Размер:
437.53 Мб (458,779,272 байт) » файлов: 29
Участники:
0 раздают, 0 качают (0 участников всего)
Внешние участники:
2 раздают, 1 качают (3 участников всего) [ Обновить ]
Есть вопросы - пишите личное сообщение пользователю M0p94ok.
07:55
56
Нет комментариев. Ваш будет первым!