Поиск

(Soul-Jazz, R&B) [CD] Earl Van Dyke - The Motown Sound: The Complete Albums & More (2CD) - 2012, FLAC (tracks+.cue), lossless

(Soul-Jazz, R&B) [CD] Earl Van Dyke - The Motown Sound: The Complete Albums & More (2CD) - 2012, FLAC (tracks+.cue), lossless
Треклист:
Earl Van Dyke - The Motown Sound: The Complete Albums & More (2CD)

Жанр: Soul-Jazz, Funk, R&B
Носитель: CD
Год издания: 2012
Издатель (лейбл): Motown/Hip-O Select/Universal
Номер по каталогу: B0016212-02
Аудиокодек: FLAC (*.flac)
Тип рипа: tracks+.cue
Битрейт аудио: lossless
Продолжительность: 78:35 / 78:44
Источник (релизер): ruskaval
Наличие сканов в содержимом раздачи: да 
 
 
CD 1
Треклист:
01. Nowhere To Run (3:02)
02. Come See About Me (2:42)
03. You're A Wonderful One (3:14)
04. How Sweet It Is (To Be Loved By You) (2:54)
05. My Girl (2:49)
06. All For You (2:57)
07. Too Many Fish In The Sea (2:19)
08. Try It Baby (2:50)
09. The Way You Do The Things You Do (2:44)
10. Can I Get A Witness (2:44)
11. Can You Jerk Like Me (2:33)
12. Money (That's What I Want) (2:24)
13. I Can't Help Myself (Sugar Pie, Honey Bunch) (2:43)
14. Soul Stomp (2:33)
15. Hot 'N' Tot (2:45)
16. Mobile Lil The Dancing Witch (2:57)
17. He Was Really Sayin' Somethin' (2:34)
18. All Day, All Night (2:29)
19. Opus And Funk (2:57)
20. Too Many Fish In The Sea (Live in Paris) (2:58)
21. Soul Stomp (Live in Paris) (3:08)
22. 6 By 6 (2:20)
23. There Is No Greater Love (2:15)
24. The Flick - Parts 1, 2, 3, & 4 (12:02)
25. You Name It (Live at the Twenty Grand) (3:39)
 
 
Лог создания рипа
Exact Audio Copy V1.0 beta 1 from 15. November 2010
EAC extraction logfile from 17. March 2013, 23:01
Earl Van Dyke / The Motown Sound
Used drive : SONY DVD RW DRU-810A Adapter: 1 ID: 3
Read mode : Secure
Utilize accurate stream : Yes
Defeat audio cache : Yes
Make use of C2 pointers : No
Read offset correction : 618
Overread into Lead-In and Lead-Out : No
Fill up missing offset samples with silence : Yes
Delete leading and trailing silent blocks : No
Null samples used in CRC calculations : Yes
Used interface : Installed external ASPI interface
Gap handling : Appended to previous track
Used output format : User Defined Encoder
Selected bitrate : 768 kBit/s
Quality : High
Add ID3 tag : No
Command line compressor : C:\Program Files\Exact Audio Copy-NEW\Flac\flac.exe
Additional command line options : -8 -V -T "ARTIST=%a" -T "TITLE=%t" -T "ALBUM=%g" -T "DATE=%y" -T "TRACKNUMBER=%n" -T "TOTALTRACKS=%x" -T "GENRE=%m" -T "ALBUMARTIST=%v" -T "ALBUM ARTIST=%v" -T "COMMENT=EAC V1.01b1, Secure Mode, Test & Copy, AccurateRip, FL
TOC of the extracted CD
Track | Start | Length | Start sector | End sector
---------------------------------------------------------
1 | 0:00.00 | 3:02.06 | 0 | 13655
2 | 3:02.06 | 2:42.20 | 13656 | 25825
3 | 5:44.26 | 3:14.26 | 25826 | 40401
4 | 8:58.52 | 2:54.31 | 40402 | 53482
5 | 11:53.08 | 2:49.23 | 53483 | 66180
6 | 14:42.31 | 2:57.04 | 66181 | 79459
7 | 17:39.35 | 2:18.59 | 79460 | 89868
8 | 19:58.19 | 2:49.51 | 89869 | 102594
9 | 22:47.70 | 2:44.10 | 102595 | 114904
10 | 25:32.05 | 2:43.55 | 114905 | 127184
11 | 28:15.60 | 2:33.37 | 127185 | 138696
12 | 30:49.22 | 2:23.49 | 138697 | 149470
13 | 33:12.71 | 2:43.27 | 149471 | 161722
14 | 35:56.23 | 2:33.00 | 161723 | 173197
15 | 38:29.23 | 2:45.24 | 173198 | 185596
16 | 41:14.47 | 2:57.17 | 185597 | 198888
17 | 44:11.64 | 2:34.00 | 198889 | 210438
18 | 46:45.64 | 2:29.22 | 210439 | 221635
19 | 49:15.11 | 2:57.32 | 221636 | 234942
20 | 52:12.43 | 2:58.13 | 234943 | 248305
21 | 55:10.56 | 3:08.05 | 248306 | 262410
22 | 58:18.61 | 2:20.20 | 262411 | 272930
23 | 60:39.06 | 2:15.19 | 272931 | 283074
24 | 62:54.25 | 12:01.72 | 283075 | 337221
25 | 74:56.22 | 3:38.41 | 337222 | 353612
Track 1
Filename J:\New Rips\Earl Van Dyke - The Motown Sound (2012) [FLAC]\disc 1of2\01 - Nowhere To Run.wav
Pre-gap length 0:00:02.00
Peak level 99.1 %
Extraction speed 4.5 X
Track quality 100.0 %
Test CRC 1AE4EFCA
Copy CRC 1AE4EFCA
Accurately ripped (confidence 2) [2594BD8C]
Copy OK
Track 2
Filename J:\New Rips\Earl Van Dyke - The Motown Sound (2012) [FLAC]\disc 1of2\02 - Come See About Me.wav
Pre-gap length 0:00:02.06
Peak level 98.6 %
Extraction speed 4.8 X
Track quality 100.0 %
Test CRC 468CDE1B
Copy CRC 468CDE1B
Accurately ripped (confidence 2) [239A1C1B]
Copy OK
Track 3
Filename J:\New Rips\Earl Van Dyke - The Motown Sound (2012) [FLAC]\disc 1of2\03 - You're A Wonderful One.wav
Pre-gap length 0:00:02.23
Peak level 100.0 %
Extraction speed 5.3 X
Track quality 100.0 %
Test CRC 1CDBCB90
Copy CRC 1CDBCB90
Accurately ripped (confidence 2) [C2864153]
Copy OK
Track 4
Filename J:\New Rips\Earl Van Dyke - The Motown Sound (2012) [FLAC]\disc 1of2\04 - How Sweet It Is.wav
Pre-gap length 0:00:02.44
Peak level 98.0 %
Extraction speed 5.5 X
Track quality 100.0 %
Test CRC 2359776D
Copy CRC 2359776D
Accurately ripped (confidence 2) [9F2F3A35]
Copy OK
Track 5
Filename J:\New Rips\Earl Van Dyke - The Motown Sound (2012) [FLAC]\disc 1of2\05 - My Girl.wav
Pre-gap length 0:00:02.49
Peak level 100.0 %
Extraction speed 5.7 X
Track quality 100.0 %
Test CRC D275329F
Copy CRC D275329F
Cannot be verified as accurate (confidence 2) [C6202484], AccurateRip returned [AAED6321]
Copy OK
Track 6
Filename J:\New Rips\Earl Van Dyke - The Motown Sound (2012) [FLAC]\disc 1of2\06 - All For You.wav
Pre-gap length 0:00:03.12
Peak level 99.6 %
Extraction speed 6.0 X
Track quality 100.0 %
Test CRC EBD87255
Copy CRC EBD87255
Accurately ripped (confidence 2) [1C0639AF]
Copy OK
Track 7
Filename J:\New Rips\Earl Van Dyke - The Motown Sound (2012) [FLAC]\disc 1of2\07 - Too Many Fish In The Sea.wav
Pre-gap length 0:00:02.50
Peak level 98.7 %
Extraction speed 4.6 X
Track quality 99.9 %
Test CRC 2CF3095B
Copy CRC 2CF3095B
Accurately ripped (confidence 2) [53D873DE]
Copy OK
Track 8
Filename J:\New Rips\Earl Van Dyke - The Motown Sound (2012) [FLAC]\disc 1of2\08 - Try It Baby.wav
Pre-gap length 0:00:02.32
Peak level 98.6 %
Extraction speed 5.1 X
Track quality 99.9 %
Test CRC 8E196864
Copy CRC 8E196864
Accurately ripped (confidence 2) [598D65A2]
Copy OK
Track 9
Filename J:\New Rips\Earl Van Dyke - The Motown Sound (2012) [FLAC]\disc 1of2\09 - The Way You Do The Things You Do.wav
Pre-gap length 0:00:02.16
Peak level 100.0 %
Extraction speed 6.5 X
Track quality 100.0 %
Test CRC 350536C9
Copy CRC 350536C9
Accurately ripped (confidence 2) [649DCBBB]
Copy OK
Track 10
Filename J:\New Rips\Earl Van Dyke - The Motown Sound (2012) [FLAC]\disc 1of2\10 - Can I Get A Witness.wav
Pre-gap length 0:00:02.35
Peak level 100.0 %
Extraction speed 6.6 X
Track quality 100.0 %
Test CRC 4CF3089E
Copy CRC 4CF3089E
Accurately ripped (confidence 2) [26C17721]
Copy OK
Track 11
Filename J:\New Rips\Earl Van Dyke - The Motown Sound (2012) [FLAC]\disc 1of2\11 - Can You Jerk Like Me.wav
Pre-gap length 0:00:02.17
Peak level 99.0 %
Extraction speed 6.8 X
Track quality 100.0 %
Test CRC 2FAC9802
Copy CRC 2FAC9802
Accurately ripped (confidence 2) [3804A82D]
Copy OK
Track 12
Filename J:\New Rips\Earl Van Dyke - The Motown Sound (2012) [FLAC]\disc 1of2\12 - Money.wav
Pre-gap length 0:00:02.11
Peak level 98.9 %
Extraction speed 6.9 X
Track quality 100.0 %
Test CRC 27934322
Copy CRC 27934322
Accurately ripped (confidence 2) [86CAA33F]
Copy OK
Track 13
Filename J:\New Rips\Earl Van Dyke - The Motown Sound (2012) [FLAC]\disc 1of2\13 - I Can't Help Myself.wav
Pre-gap length 0:00:05.10
Peak level 100.0 %
Extraction speed 5.7 X
Track quality 99.9 %
Test CRC B0DC254D
Copy CRC B0DC254D
Accurately ripped (confidence 2) [63262BBE]
Copy OK
Track 14
Filename J:\New Rips\Earl Van Dyke - The Motown Sound (2012) [FLAC]\disc 1of2\14 - Soul Stomp.wav
Pre-gap length 0:00:01.64
Peak level 96.0 %
Extraction speed 7.3 X
Track quality 100.0 %
Test CRC C84B82DD
Copy CRC C84B82DD
Accurately ripped (confidence 2) [B38F46EF]
Copy OK
Track 15
Filename J:\New Rips\Earl Van Dyke - The Motown Sound (2012) [FLAC]\disc 1of2\15 - Hot 'N' Tot.wav
Pre-gap length 0:00:02.11
Peak level 97.3 %
Extraction speed 7.2 X
Track quality 100.0 %
Test CRC 0F2D7498
Copy CRC 0F2D7498
Accurately ripped (confidence 2) [577C1AF9]
Copy OK
Track 16
Filename J:\New Rips\Earl Van Dyke - The Motown Sound (2012) [FLAC]\disc 1of2\16 - Mobile Lil The Dancing Witch.wav
Pre-gap length 0:00:02.28
Peak level 100.0 %
Extraction speed 7.8 X
Track quality 100.0 %
Test CRC 4C9D96FE
Copy CRC 4C9D96FE
Accurately ripped (confidence 2) [DABF33CE]
Copy OK
Track 17
Filename J:\New Rips\Earl Van Dyke - The Motown Sound (2012) [FLAC]\disc 1of2\17 - He Was Really Sayin' Somethin'.wav
Pre-gap length 0:00:01.52
Peak level 98.1 %
Extraction speed 7.7 X
Track quality 100.0 %
Test CRC 018F19A1
Copy CRC 018F19A1
Accurately ripped (confidence 2) [13E9E398]
Copy OK
Track 18
Filename J:\New Rips\Earl Van Dyke - The Motown Sound (2012) [FLAC]\disc 1of2\18 - All Day All Night.wav
Pre-gap length 0:00:02.04
Peak level 95.3 %
Extraction speed 7.8 X
Track quality 100.0 %
Test CRC 1154A4C9
Copy CRC 1154A4C9
Accurately ripped (confidence 2) [9A725D07]
Copy OK
Track 19
Filename J:\New Rips\Earl Van Dyke - The Motown Sound (2012) [FLAC]\disc 1of2\19 - Opus And Funk.wav
Pre-gap length 0:00:00.49
Peak level 99.7 %
Extraction speed 8.2 X
Track quality 100.0 %
Test CRC EF095CCC
Copy CRC EF095CCC
Accurately ripped (confidence 2) [B0159BE5]
Copy OK
Track 20
Filename J:\New Rips\Earl Van Dyke - The Motown Sound (2012) [FLAC]\disc 1of2\20 - Too Many Fish In The Sea.wav
Pre-gap length 0:00:02.56
Peak level 99.5 %
Extraction speed 8.4 X
Track quality 100.0 %
Test CRC E0332E54
Copy CRC E0332E54
Accurately ripped (confidence 2) [99AFC510]
Copy OK
Track 21
Filename J:\New Rips\Earl Van Dyke - The Motown Sound (2012) [FLAC]\disc 1of2\21 - Soul Stomp.wav
Peak level 98.5 %
Extraction speed 8.7 X
Track quality 100.0 %
Test CRC 03C66382
Copy CRC 03C66382
Accurately ripped (confidence 2) [A334F5FD]
Copy OK
Track 22
Filename J:\New Rips\Earl Van Dyke - The Motown Sound (2012) [FLAC]\disc 1of2\22 - 6 By 6.wav
Pre-gap length 0:00:02.57
Peak level 100.0 %
Extraction speed 8.3 X
Track quality 100.0 %
Test CRC F3823108
Copy CRC F3823108
Accurately ripped (confidence 2) [7637CD3F]
Copy OK
Track 23
Filename J:\New Rips\Earl Van Dyke - The Motown Sound (2012) [FLAC]\disc 1of2\23 - There Is No Greater Love.wav
Pre-gap length 0:00:02.10
Peak level 98.5 %
Extraction speed 5.6 X
Track quality 100.0 %
Test CRC 708BBCA0
Copy CRC 708BBCA0
Accurately ripped (confidence 2) [B2094724]
Copy OK
Track 24
Filename J:\New Rips\Earl Van Dyke - The Motown Sound (2012) [FLAC]\disc 1of2\24 - The Flick.wav
Pre-gap length 0:00:02.73
Peak level 100.0 %
Extraction speed 4.5 X
Track quality 100.0 %
Test CRC BEC6D1A9
Copy CRC BEC6D1A9
Accurately ripped (confidence 2) [7F90ABF0]
Copy OK
Track 25
Filename J:\New Rips\Earl Van Dyke - The Motown Sound (2012) [FLAC]\disc 1of2\25 - You Name It.wav
Pre-gap length 0:00:02.17
Peak level 100.0 %
Extraction speed 2.8 X
Track quality 100.0 %
Test CRC CD836FA5
Copy CRC CD836FA5
Accurately ripped (confidence 3) [4AA17C8E]
Copy OK
24 track(s) accurately ripped
1 track(s) could not be verified as accurate
Some tracks could not be verified as accurate
No errors occurred
End of status report
==== Log checksum EA0B628423718DC35E3F644D5D29B64FDECB0C6BB29098B01671A31A02FCF232 ====
 
Содержание индексной карты (.CUE)
REM GENRE Jazz
REM DATE 2012
REM DISCID 6B126A19
REM COMMENT "ExactAudioCopy v1.0b1"
PERFORMER "Earl Van Dyke"
TITLE "The Motown Sound: The Complete Albums & More (disc 1)"
FILE "01. Nowhere To Run.flac" WAVE
TRACK 01 AUDIO
TITLE "Nowhere To Run"
PERFORMER "Earl Van Dyke"
FLAGS DCP
INDEX 01 00:00:00
TRACK 02 AUDIO
TITLE "Come See About Me"
PERFORMER "Earl Van Dyke"
FLAGS DCP
INDEX 00 03:00:00
FILE "02. Come See About Me.flac" WAVE
INDEX 01 00:00:00
TRACK 03 AUDIO
TITLE "You're A Wonderful One"
PERFORMER "Earl Van Dyke"
FLAGS DCP
INDEX 00 02:39:72
FILE "03. You're A Wonderful One.flac" WAVE
INDEX 01 00:00:00
TRACK 04 AUDIO
TITLE "How Sweet It Is (To Be Loved By You)"
PERFORMER "Earl Van Dyke"
FLAGS DCP
INDEX 00 03:11:57
FILE "04. How Sweet It Is (To Be Loved By You).flac" WAVE
INDEX 01 00:00:00
TRACK 05 AUDIO
TITLE "My Girl"
PERFORMER "Earl Van Dyke"
FLAGS DCP
INDEX 00 02:51:57
FILE "05. My Girl.flac" WAVE
INDEX 01 00:00:00
TRACK 06 AUDIO
TITLE "All For You"
PERFORMER "Earl Van Dyke"
FLAGS DCP
INDEX 00 02:46:11
FILE "06. All For You.flac" WAVE
INDEX 01 00:00:00
TRACK 07 AUDIO
TITLE "Too Many Fish In The Sea"
PERFORMER "Earl Van Dyke"
FLAGS DCP
INDEX 00 02:54:29
FILE "07. Too Many Fish In The Sea.flac" WAVE
INDEX 01 00:00:00
TRACK 08 AUDIO
TITLE "Try It Baby"
PERFORMER "Earl Van Dyke"
FLAGS DCP
INDEX 00 02:16:27
FILE "08. Try It Baby.flac" WAVE
INDEX 01 00:00:00
TRACK 09 AUDIO
TITLE "The Way You Do The Things You Do"
PERFORMER "Earl Van Dyke"
FLAGS DCP
INDEX 00 02:47:35
FILE "09. The Way You Do The Things You Do.flac" WAVE
INDEX 01 00:00:00
TRACK 10 AUDIO
TITLE "Can I Get A Witness"
PERFORMER "Earl Van Dyke"
FLAGS DCP
INDEX 00 02:41:50
FILE "10. Can I Get A Witness.flac" WAVE
INDEX 01 00:00:00
TRACK 11 AUDIO
TITLE "Can You Jerk Like Me"
PERFORMER "Earl Van Dyke"
FLAGS DCP
INDEX 00 02:41:38
FILE "11. Can You Jerk Like Me.flac" WAVE
INDEX 01 00:00:00
TRACK 12 AUDIO
TITLE "Money (That's What I Want)"
PERFORMER "Earl Van Dyke"
FLAGS DCP
INDEX 00 02:31:26
FILE "12. Money (That's What I Want).flac" WAVE
INDEX 01 00:00:00
TRACK 13 AUDIO
TITLE "I Can't Help Myself (Sugar Pie, Honey Bunch)"
PERFORMER "Earl Van Dyke"
FLAGS DCP
INDEX 00 02:18:39
FILE "13. I Can't Help Myself (Sugar Pie, Honey Bunch).flac" WAVE
INDEX 01 00:00:00
TRACK 14 AUDIO
TITLE "Soul Stomp"
PERFORMER "Earl Van Dyke"
FLAGS DCP
INDEX 00 02:41:38
FILE "14. Soul Stomp.flac" WAVE
INDEX 01 00:00:00
TRACK 15 AUDIO
TITLE "Hot 'N' Tot"
PERFORMER "Earl Van Dyke"
FLAGS DCP
INDEX 00 02:30:64
FILE "15. Hot 'N' Tot.flac" WAVE
INDEX 01 00:00:00
TRACK 16 AUDIO
TITLE "Mobile Lil The Dancing Witch"
PERFORMER "Earl Van Dyke"
FLAGS DCP
INDEX 00 02:42:71
FILE "16. Mobile Lil The Dancing Witch.flac" WAVE
INDEX 01 00:00:00
TRACK 17 AUDIO
TITLE "He Was Really Sayin' Somethin'"
PERFORMER "Earl Van Dyke"
FLAGS DCP
INDEX 00 02:55:40
FILE "17. He Was Really Sayin' Somethin'.flac" WAVE
INDEX 01 00:00:00
TRACK 18 AUDIO
TITLE "All Day, All Night"
PERFORMER "Earl Van Dyke"
FLAGS DCP
INDEX 00 02:31:71
FILE "18. All Day, All Night.flac" WAVE
INDEX 01 00:00:00
TRACK 19 AUDIO
TITLE "Opus And Funk"
PERFORMER "Earl Van Dyke"
FLAGS DCP
INDEX 00 02:28:48
FILE "19. Opus And Funk.flac" WAVE
INDEX 01 00:00:00
TRACK 20 AUDIO
TITLE "Too Many Fish In The Sea (Live in Paris)"
PERFORMER "Earl Van Dyke"
FLAGS DCP
INDEX 00 02:54:51
FILE "20. Too Many Fish In The Sea (Live in Paris).flac" WAVE
INDEX 01 00:00:00
FILE "21. Soul Stomp (Live in Paris).flac" WAVE
TRACK 21 AUDIO
TITLE "Soul Stomp (Live in Paris)"
PERFORMER "Earl Van Dyke"
FLAGS DCP
INDEX 01 00:00:00
TRACK 22 AUDIO
TITLE "6 By 6"
PERFORMER "Earl Van Dyke"
FLAGS DCP
INDEX 00 03:05:23
FILE "22. 6 By 6.flac" WAVE
INDEX 01 00:00:00
TRACK 23 AUDIO
TITLE "There Is No Greater Love"
PERFORMER "Earl Van Dyke"
FLAGS DCP
INDEX 00 02:18:10
FILE "23. There Is No Greater Love.flac" WAVE
INDEX 01 00:00:00
TRACK 24 AUDIO
TITLE "The Flick - Parts 1, 2, 3, & 4"
PERFORMER "Earl Van Dyke"
FLAGS DCP
INDEX 00 02:12:21
FILE "24. The Flick - Parts 1, 2, 3, & 4.flac" WAVE
INDEX 01 00:00:00
TRACK 25 AUDIO
TITLE "You Name It (Live at the Twenty Grand)"
PERFORMER "Earl Van Dyke"
FLAGS DCP
INDEX 00 11:59:55
FILE "25. You Name It (Live at the Twenty Grand).flac" WAVE
INDEX 01 00:00:00
 
CD 2
Треклист:
01. Someday We'll Be Together (3:37)
02. Rainy Night In Georgia (3:41)
03. Thank You Falettinme Be Mice Elf Agin (5:39)
04. Na Na Hey Hey Kiss Him Goodbye (3:25)
05. Wichita Lineman (3:56)
06. The Flick (4:14)
07. Cissy Strut (5:00)
08. Stand By Me (5:00)
09. My Cherie Amour (4:35)
10. Fuschia Moods (4:16)
11. The Stingray (5:21)
12. The Whip-A-Rang (4:59)
13. Runaway Child, Running Wild (3:15)
14. Gonna Give Her All The Love I've Got (3:33)
15. Fever In The Funk House (3:21)
16. Behold (2:43)
17. Greedy Green (2:37)
18. Up On Your Feet (3:11)
19. Too Busy Thinking About My Baby (2:58)
20. Ode To Benny B. (3:22)
 
 
Лог создания рипа
Exact Audio Copy V1.0 beta 1 from 15. November 2010
EAC extraction logfile from 17. March 2013, 23:01
Earl Van Dyke / The Motown Sound
Used drive : TSSTcorpCDDVDW SH-S203N Adapter: 0 ID: 2
Read mode : Secure
Utilize accurate stream : Yes
Defeat audio cache : Yes
Make use of C2 pointers : No
Read offset correction : 6
Overread into Lead-In and Lead-Out : No
Fill up missing offset samples with silence : Yes
Delete leading and trailing silent blocks : No
Null samples used in CRC calculations : Yes
Used interface : Installed external ASPI interface
Gap handling : Appended to previous track
Used output format : User Defined Encoder
Selected bitrate : 768 kBit/s
Quality : High
Add ID3 tag : No
Command line compressor : C:\Program Files\Exact Audio Copy-NEW\Flac\flac.exe
Additional command line options : -8 -V -T "ARTIST=%a" -T "TITLE=%t" -T "ALBUM=%g" -T "DATE=%y" -T "TRACKNUMBER=%n" -T "TOTALTRACKS=%x" -T "GENRE=%m" -T "ALBUMARTIST=%v" -T "ALBUM ARTIST=%v" -T "COMMENT=EAC V1.01b1, Secure Mode, Test & Copy, AccurateRip, FL
TOC of the extracted CD
Track | Start | Length | Start sector | End sector
---------------------------------------------------------
1 | 0:00.00 | 3:37.17 | 0 | 16291
2 | 3:37.17 | 3:41.22 | 16292 | 32888
3 | 7:18.39 | 5:39.21 | 32889 | 58334
4 | 12:57.60 | 3:24.45 | 58335 | 73679
5 | 16:22.30 | 3:56.29 | 73680 | 91408
6 | 20:18.59 | 4:13.57 | 91409 | 110440
7 | 24:32.41 | 5:00.02 | 110441 | 132942
8 | 29:32.43 | 5:00.03 | 132943 | 155445
9 | 34:32.46 | 4:35.25 | 155446 | 176095
10 | 39:07.71 | 4:16.31 | 176096 | 195326
11 | 43:24.27 | 5:21.22 | 195327 | 219423
12 | 48:45.49 | 4:59.10 | 219424 | 241858
13 | 53:44.59 | 3:14.66 | 241859 | 256474
14 | 56:59.50 | 3:32.40 | 256475 | 272414
15 | 60:32.15 | 3:20.40 | 272415 | 287454
16 | 63:52.55 | 2:43.22 | 287455 | 299701
17 | 66:36.02 | 2:37.11 | 299702 | 311487
18 | 69:13.13 | 3:11.15 | 311488 | 325827
19 | 72:24.28 | 2:58.17 | 325828 | 339194
20 | 75:22.45 | 3:21.47 | 339195 | 354316
Track 1
Filename J:\New Rips\Earl Van Dyke - The Motown Sound (2012) [FLAC]\disc 2of2\01 - Someday We'll Be Together.wav
Pre-gap length 0:00:02.00
Peak level 98.3 %
Extraction speed 4.8 X
Track quality 100.0 %
Test CRC 53956F2C
Copy CRC 53956F2C
Accurately ripped (confidence 3) [DA6D2A3B]
Copy OK
Track 2
Filename J:\New Rips\Earl Van Dyke - The Motown Sound (2012) [FLAC]\disc 2of2\02 - Rainy Night In Georgia.wav
Peak level 98.6 %
Extraction speed 5.3 X
Track quality 100.0 %
Test CRC DBF7B910
Copy CRC DBF7B910
Accurately ripped (confidence 3) [E9908624]
Copy OK
Track 3
Filename J:\New Rips\Earl Van Dyke - The Motown Sound (2012) [FLAC]\disc 2of2\03 - Thank You Falettinme Be Mice Elf Agin.wav
Peak level 99.1 %
Extraction speed 6.0 X
Track quality 100.0 %
Test CRC C16DB0AA
Copy CRC C16DB0AA
Accurately ripped (confidence 3) [F8B79E6C]
Copy OK
Track 4
Filename J:\New Rips\Earl Van Dyke - The Motown Sound (2012) [FLAC]\disc 2of2\04 - Na Na Hey Hey Kiss Him Goodbye.wav
Peak level 97.9 %
Extraction speed 6.0 X
Track quality 100.0 %
Test CRC BE32F27C
Copy CRC BE32F27C
Accurately ripped (confidence 3) [67FA8E99]
Copy OK
Track 5
Filename J:\New Rips\Earl Van Dyke - The Motown Sound (2012) [FLAC]\disc 2of2\05 - Wichita Lineman.wav
Peak level 98.2 %
Extraction speed 6.5 X
Track quality 100.0 %
Test CRC 0D9881DD
Copy CRC 0D9881DD
Accurately ripped (confidence 3) [3D054BDB]
Copy OK
Track 6
Filename J:\New Rips\Earl Van Dyke - The Motown Sound (2012) [FLAC]\disc 2of2\06 - The Flick.wav
Peak level 100.0 %
Extraction speed 6.9 X
Track quality 100.0 %
Test CRC 5DBC954E
Copy CRC 5DBC954E
Accurately ripped (confidence 3) [F756A8CA]
Copy OK
Track 7
Filename J:\New Rips\Earl Van Dyke - The Motown Sound (2012) [FLAC]\disc 2of2\07 - Cissy Strut.wav
Pre-gap length 0:00:01.32
Peak level 98.2 %
Extraction speed 7.5 X
Track quality 100.0 %
Test CRC 316F03C4
Copy CRC 316F03C4
Accurately ripped (confidence 3) [4E6A8B52]
Copy OK
Track 8
Filename J:\New Rips\Earl Van Dyke - The Motown Sound (2012) [FLAC]\disc 2of2\08 - Stand By Me.wav
Peak level 96.8 %
Extraction speed 7.8 X
Track quality 100.0 %
Test CRC 69EEEFE8
Copy CRC 69EEEFE8
Accurately ripped (confidence 3) [E5977142]
Copy OK
Track 9
Filename J:\New Rips\Earl Van Dyke - The Motown Sound (2012) [FLAC]\disc 2of2\09 - My Cherie Amour.wav
Peak level 99.8 %
Extraction speed 8.0 X
Track quality 100.0 %
Test CRC 2E134399
Copy CRC 2E134399
Accurately ripped (confidence 3) [76602CD7]
Copy OK
Track 10
Filename J:\New Rips\Earl Van Dyke - The Motown Sound (2012) [FLAC]\disc 2of2\10 - Fuschia Moods.wav
Peak level 97.9 %
Extraction speed 7.9 X
Track quality 100.0 %
Test CRC 542F5171
Copy CRC 542F5171
Accurately ripped (confidence 3) [A3EF0C40]
Copy OK
Track 11
Filename J:\New Rips\Earl Van Dyke - The Motown Sound (2012) [FLAC]\disc 2of2\11 - The Stingray.wav
Peak level 97.7 %
Extraction speed 8.8 X
Track quality 100.0 %
Test CRC 948E3097
Copy CRC 948E3097
Accurately ripped (confidence 3) [EBBDF12D]
Copy OK
Track 12
Filename J:\New Rips\Earl Van Dyke - The Motown Sound (2012) [FLAC]\disc 2of2\12 - The Whip-A-Rang.wav
Peak level 94.8 %
Extraction speed 9.0 X
Track quality 100.0 %
Test CRC 0939DE01
Copy CRC 0939DE01
Accurately ripped (confidence 3) [2FAAD99A]
Copy OK
Track 13
Filename J:\New Rips\Earl Van Dyke - The Motown Sound (2012) [FLAC]\disc 2of2\13 - Runaway Child, Running Wild.wav
Pre-gap length 0:00:02.61
Peak level 100.0 %
Extraction speed 8.8 X
Track quality 100.0 %
Test CRC 810C89F6
Copy CRC 810C89F6
Accurately ripped (confidence 3) [C66AD9FD]
Copy OK
Track 14
Filename J:\New Rips\Earl Van Dyke - The Motown Sound (2012) [FLAC]\disc 2of2\14 - Gonna Give Her All The Love I've Got.wav
Pre-gap length 0:00:01.42
Peak level 100.0 %
Extraction speed 7.1 X
Track quality 99.9 %
Test CRC D7F20BD2
Copy CRC D7F20BD2
Accurately ripped (confidence 3) [8A428079]
Copy OK
Track 15
Filename J:\New Rips\Earl Van Dyke - The Motown Sound (2012) [FLAC]\disc 2of2\15 - Fever In The Funk House.wav
Pre-gap length 0:00:02.13
Peak level 100.0 %
Extraction speed 9.0 X
Track quality 100.0 %
Test CRC B882A784
Copy CRC B882A784
Accurately ripped (confidence 3) [A40A6AE0]
Copy OK
Track 16
Filename J:\New Rips\Earl Van Dyke - The Motown Sound (2012) [FLAC]\disc 2of2\16 - Behold.wav
Pre-gap length 0:00:01.37
Peak level 100.0 %
Extraction speed 8.9 X
Track quality 100.0 %
Test CRC 72E1E003
Copy CRC 72E1E003
Accurately ripped (confidence 3) [4C380686]
Copy OK
Track 17
Filename J:\New Rips\Earl Van Dyke - The Motown Sound (2012) [FLAC]\disc 2of2\17 - Greedy Green.wav
Pre-gap length 0:00:02.29
Peak level 100.0 %
Extraction speed 9.0 X
Track quality 100.0 %
Test CRC 1D4A8B9E
Copy CRC 1D4A8B9E
Accurately ripped (confidence 3) [E64CE18C]
Copy OK
Track 18
Filename J:\New Rips\Earl Van Dyke - The Motown Sound (2012) [FLAC]\disc 2of2\18 - Up On Your Feet.wav
Pre-gap length 0:00:01.09
Peak level 86.8 %
Extraction speed 9.4 X
Track quality 100.0 %
Test CRC 90329E5E
Copy CRC 90329E5E
Accurately ripped (confidence 3) [3145D5C8]
Copy OK
Track 19
Filename J:\New Rips\Earl Van Dyke - The Motown Sound (2012) [FLAC]\disc 2of2\19 - Too Busy Thinking About My Baby.wav
Pre-gap length 0:00:02.25
Peak level 100.0 %
Extraction speed 9.5 X
Track quality 100.0 %
Test CRC C103B998
Copy CRC C103B998
Accurately ripped (confidence 3) [C10E70C4]
Copy OK
Track 20
Filename J:\New Rips\Earl Van Dyke - The Motown Sound (2012) [FLAC]\disc 2of2\20 - Ode To Benny B.wav
Pre-gap length 0:00:01.60
Peak level 100.0 %
Extraction speed 9.9 X
Track quality 100.0 %
Test CRC 1089BCF0
Copy CRC 1089BCF0
Accurately ripped (confidence 3) [AD8A98EA]
Copy OK
All tracks accurately ripped
No errors occurred
End of status report
==== Log checksum C1C62202470E707D411DA37AAF2591F93414416E255BACB9F3B2F85E1F6682CD ====
 
Содержание индексной карты (.CUE)
REM GENRE Jazz
REM DATE 2012
REM DISCID 31127414
REM COMMENT "ExactAudioCopy v1.0b1"
PERFORMER "Earl Van Dyke"
TITLE "The Motown Sound: The Complete Albums & More (disc 2)"
FILE "01. Someday We'll Be Together.flac" WAVE
TRACK 01 AUDIO
TITLE "Someday We'll Be Together"
PERFORMER "Earl Van Dyke"
FLAGS DCP
INDEX 01 00:00:00
FILE "02. Rainy Night In Georgia.flac" WAVE
TRACK 02 AUDIO
TITLE "Rainy Night In Georgia"
PERFORMER "Earl Van Dyke"
FLAGS DCP
INDEX 01 00:00:00
FILE "03. Thank You Falettinme Be Mice Elf Agin.flac" WAVE
TRACK 03 AUDIO
TITLE "Thank You Falettinme Be Mice Elf Agin"
PERFORMER "Earl Van Dyke"
FLAGS DCP
INDEX 01 00:00:00
FILE "04. Na Na Hey Hey Kiss Him Goodbye.flac" WAVE
TRACK 04 AUDIO
TITLE "Na Na Hey Hey Kiss Him Goodbye"
PERFORMER "Earl Van Dyke"
FLAGS DCP
INDEX 01 00:00:00
FILE "05. Wichita Lineman.flac" WAVE
TRACK 05 AUDIO
TITLE "Wichita Lineman"
PERFORMER "Earl Van Dyke"
FLAGS DCP
INDEX 01 00:00:00
FILE "06. The Flick.flac" WAVE
TRACK 06 AUDIO
TITLE "The Flick"
PERFORMER "Earl Van Dyke"
FLAGS DCP
INDEX 01 00:00:00
TRACK 07 AUDIO
TITLE "Cissy Strut"
PERFORMER "Earl Van Dyke"
FLAGS DCP
INDEX 00 04:12:25
FILE "07. Cissy Strut.flac" WAVE
INDEX 01 00:00:00
FILE "08. Stand By Me.flac" WAVE
TRACK 08 AUDIO
TITLE "Stand By Me"
PERFORMER "Earl Van Dyke"
FLAGS DCP
INDEX 01 00:00:00
FILE "09. My Cherie Amour.flac" WAVE
TRACK 09 AUDIO
TITLE "My Cherie Amour"
PERFORMER "Earl Van Dyke"
FLAGS DCP
INDEX 01 00:00:00
FILE "10. Fuschia Moods.flac" WAVE
TRACK 10 AUDIO
TITLE "Fuschia Moods"
PERFORMER "Earl Van Dyke"
FLAGS DCP
INDEX 01 00:00:00
FILE "11. The Stingray.flac" WAVE
TRACK 11 AUDIO
TITLE "The Stingray"
PERFORMER "Earl Van Dyke"
FLAGS DCP
INDEX 01 00:00:00
FILE "12. The Whip-A-Rang.flac" WAVE
TRACK 12 AUDIO
TITLE "The Whip-A-Rang"
PERFORMER "Earl Van Dyke"
FLAGS DCP
INDEX 01 00:00:00
TRACK 13 AUDIO
TITLE "Runaway Child, Running Wild"
PERFORMER "Earl Van Dyke"
FLAGS DCP
INDEX 00 04:56:24
FILE "13. Runaway Child, Running Wild.flac" WAVE
INDEX 01 00:00:00
TRACK 14 AUDIO
TITLE "Gonna Give Her All The Love I've Got"
PERFORMER "Earl Van Dyke"
FLAGS DCP
INDEX 00 03:13:24
FILE "14. Gonna Give Her All The Love I've Got.flac" WAVE
INDEX 01 00:00:00
TRACK 15 AUDIO
TITLE "Fever In The Funk House"
PERFORMER "Earl Van Dyke"
FLAGS DCP
INDEX 00 03:30:27
FILE "15. Fever In The Funk House.flac" WAVE
INDEX 01 00:00:00
TRACK 16 AUDIO
TITLE "Behold"
PERFORMER "Earl Van Dyke"
FLAGS DCP
INDEX 00 03:19:03
FILE "16. Behold.flac" WAVE
INDEX 01 00:00:00
TRACK 17 AUDIO
TITLE "Greedy Green"
PERFORMER "Earl Van Dyke"
FLAGS DCP
INDEX 00 02:40:68
FILE "17. Greedy Green.flac" WAVE
INDEX 01 00:00:00
TRACK 18 AUDIO
TITLE "Up On Your Feet"
PERFORMER "Earl Van Dyke"
FLAGS DCP
INDEX 00 02:36:02
FILE "18. Up On Your Feet.flac" WAVE
INDEX 01 00:00:00
TRACK 19 AUDIO
TITLE "Too Busy Thinking About My Baby"
PERFORMER "Earl Van Dyke"
FLAGS DCP
INDEX 00 03:08:65
FILE "19. Too Busy Thinking About My Baby.flac" WAVE
INDEX 01 00:00:00
TRACK 20 AUDIO
TITLE "Ode To Benny B."
PERFORMER "Earl Van Dyke"
FLAGS DCP
INDEX 00 02:56:32
FILE "20. Ode To Benny B.flac" WAVE
INDEX 01 00:00:00
Приватный:
Нет (DHT включён)
Размер:
1019.40 Мб (1,068,917,487 байт) » файлов: 75
Участники:
0 раздают, 0 качают (0 участников всего)
Внешние участники:
2 раздают, 1 качают (3 участников всего) [ Обновить ]
Есть вопросы - пишите личное сообщение пользователю M0p94ok.
07:54
105
Нет комментариев. Ваш будет первым!