Поиск

(Funk, Soul, Pop, Electronic jazz) [CD] Atlas - Breeze - 1987, FLAC (tracks+.cue), lossless

(Funk, Soul, Pop, Electronic jazz) [CD] Atlas - Breeze - 1987, FLAC (tracks+.cue), lossless
Треклист:
Atlas / Breeze
Жанр: Funk, Soul, Pop, Electronic jazz
Носитель: CD
Страна-производитель диска (релиза): Japan
Год издания: 1987
Издатель (лейбл): Crown
Номер по каталогу: ZL-85
Аудиокодек: FLAC (*.flac)
Тип рипа: tracks+.cue
Битрейт аудио: lossless
Продолжительность: 45:41
Источник (релизер): DP
Наличие сканов в содержимом раздачи: да
Треклист:
01. Mediterranean Breeze
02. Simpatia
03. After Brunch With You
04. Summer Breeze
05. Never Come Into Your Eyes
06. Indige
07. Breeze For Siesta
08. Walkin' Around In Summer Sand
09. Love Beach
10. Madrigl
 
Лог создания рипа
Exact Audio Copy V1.3 from 2. September 2016
EAC extraction logfile from 27. December 2017, 3:07
Atlas / Breeze
Used drive : PIONEER BD-RW BDR-206M Adapter: 1 ID: 0
Read mode : Secure
Utilize accurate stream : Yes
Defeat audio cache : Yes
Make use of C2 pointers : No
Read offset correction : 667
Overread into Lead-In and Lead-Out : No
Fill up missing offset samples with silence : Yes
Delete leading and trailing silent blocks : No
Null samples used in CRC calculations : Yes
Used interface : Native Win32 interface for Win NT & 2000
Gap handling : Appended to previous track
Used output format : User Defined Encoder
Selected bitrate : 1024 kBit/s
Quality : High
Add ID3 tag : No
Command line compressor : C:\disks\d18\array\distr\flac-1.3.1-win\win64\flac.exe
Additional command line options : -8 -V -T "ARTIST=%artist%" -T "TITLE=%title%" -T "ALBUM=%albumtitle%" -T "DATE=%year%" -T "TRACKNUMBER=%tracknr%" -T "GENRE=%genre%" -T "PERFORMER=%albuminterpret%" -T "COMPOSER=%composer%" %haslyrics%--tag-from-file=LYRICS="%lyricsfile%"%haslyrics% -T "ALBUMARTIST=%albumartist%" -T "DISCNUMBER=%cdnumber%" -T "TOTALDISCS=%totalcds%" -T "TOTALTRACKS=%numtracks%" -T "COMMENT=%comment%" %source% -o %dest%
TOC of the extracted CD
Track | Start | Length | Start sector | End sector
---------------------------------------------------------
1 | 0:00.00 | 5:30.63 | 0 | 24812
2 | 5:30.63 | 4:35.07 | 24813 | 45444
3 | 10:05.70 | 3:47.08 | 45445 | 62477
4 | 13:53.03 | 4:13.07 | 62478 | 81459
5 | 18:06.10 | 4:28.63 | 81460 | 101622
6 | 22:34.73 | 4:38.35 | 101623 | 122507
7 | 27:13.33 | 5:24.35 | 122508 | 146842
8 | 32:37.68 | 3:13.45 | 146843 | 161362
9 | 35:51.38 | 4:12.27 | 161363 | 180289
10 | 40:03.65 | 5:36.65 | 180290 | 205554
Track 1
Filename C:\disks\d21\temp\eac\Atlas\01 - Mediterranean Breeze.wav
Pre-gap length 0:00:02.00
Peak level 100.0 %
Extraction speed 3.1 X
Track quality 100.0 %
Test CRC 0015E4A6
Copy CRC 0015E4A6
Track not present in AccurateRip database
Copy OK
Track 2
Filename C:\disks\d21\temp\eac\Atlas\02 - Simpatia.wav
Peak level 100.0 %
Extraction speed 3.4 X
Track quality 100.0 %
Test CRC C0054176
Copy CRC C0054176
Track not present in AccurateRip database
Copy OK
Track 3
Filename C:\disks\d21\temp\eac\Atlas\03 - After Brunch With You.wav
Peak level 100.0 %
Extraction speed 3.6 X
Track quality 100.0 %
Test CRC 3D8FB63D
Copy CRC 3D8FB63D
Track not present in AccurateRip database
Copy OK
Track 4
Filename C:\disks\d21\temp\eac\Atlas\04 - Summer Breeze.wav
Peak level 100.0 %
Extraction speed 3.8 X
Track quality 100.0 %
Test CRC 6F134C07
Copy CRC 6F134C07
Track not present in AccurateRip database
Copy OK
Track 5
Filename C:\disks\d21\temp\eac\Atlas\05 - Never Come Into Your Eyes.wav
Peak level 58.7 %
Extraction speed 4.1 X
Track quality 100.0 %
Test CRC DEE724FE
Copy CRC DEE724FE
Track not present in AccurateRip database
Copy OK
Track 6
Filename C:\disks\d21\temp\eac\Atlas\06 - Indige.wav
Peak level 75.9 %
Extraction speed 4.3 X
Track quality 100.0 %
Test CRC 00A45105
Copy CRC 00A45105
Track not present in AccurateRip database
Copy OK
Track 7
Filename C:\disks\d21\temp\eac\Atlas\07 - Breeze For Siesta.wav
Peak level 45.6 %
Extraction speed 4.6 X
Track quality 100.0 %
Test CRC C341F2FD
Copy CRC C341F2FD
Track not present in AccurateRip database
Copy OK
Track 8
Filename C:\disks\d21\temp\eac\Atlas\08 - Walkin' Around In Summer Sand.wav
Peak level 84.1 %
Extraction speed 4.5 X
Track quality 100.0 %
Test CRC B7292525
Copy CRC B7292525
Track not present in AccurateRip database
Copy OK
Track 9
Filename C:\disks\d21\temp\eac\Atlas\09 - Love Beach.wav
Peak level 79.9 %
Extraction speed 4.8 X
Track quality 100.0 %
Test CRC 5B823E4F
Copy CRC 5B823E4F
Track not present in AccurateRip database
Copy OK
Track 10
Filename C:\disks\d21\temp\eac\Atlas\10 - Madrigl.wav
Peak level 87.7 %
Extraction speed 5.2 X
Track quality 100.0 %
Test CRC BF122549
Copy CRC BF122549
Track not present in AccurateRip database
Copy OK
None of the tracks are present in the AccurateRip database
No errors occurred
End of status report
---- CUETools DB Plugin V2.1.6
[CTDB TOCID: xKXSQZdnxZlFHHkUFxRTr9RZths-] disk not present in database
Submit result: xKXSQZdnxZlFHHkUFxRTr9RZths- has been uploaded
==== Log checksum E1A622C873F2CDF95CE7677EA52F019431188F11C378D9148DDB98B8B59BE01F ====
 
Содержание индексной карты (.CUE)
REM GENRE Jazz
REM DATE 1987
REM DISCID 840AB40A
REM COMMENT "ExactAudioCopy v1.3"
PERFORMER "Atlas"
TITLE "Breeze"
REM COMPOSER ""
FILE "01 - Mediterranean Breeze.wav" WAVE
TRACK 01 AUDIO
TITLE "Mediterranean Breeze"
PERFORMER "Atlas"
REM COMPOSER ""
INDEX 01 00:00:00
FILE "02 - Simpatia.wav" WAVE
TRACK 02 AUDIO
TITLE "Simpatia"
PERFORMER "Atlas"
REM COMPOSER ""
INDEX 01 00:00:00
FILE "03 - After Brunch With You.wav" WAVE
TRACK 03 AUDIO
TITLE "After Brunch With You"
PERFORMER "Atlas"
REM COMPOSER ""
INDEX 01 00:00:00
FILE "04 - Summer Breeze.wav" WAVE
TRACK 04 AUDIO
TITLE "Summer Breeze"
PERFORMER "Atlas"
REM COMPOSER ""
INDEX 01 00:00:00
FILE "05 - Never Come Into Your Eyes.wav" WAVE
TRACK 05 AUDIO
TITLE "Never Come Into Your Eyes"
PERFORMER "Atlas"
REM COMPOSER ""
INDEX 01 00:00:00
FILE "06 - Indige.wav" WAVE
TRACK 06 AUDIO
TITLE "Indige"
PERFORMER "Atlas"
REM COMPOSER ""
INDEX 01 00:00:00
FILE "07 - Breeze For Siesta.wav" WAVE
TRACK 07 AUDIO
TITLE "Breeze For Siesta"
PERFORMER "Atlas"
REM COMPOSER ""
INDEX 01 00:00:00
FILE "08 - Walkin' Around In Summer Sand.wav" WAVE
TRACK 08 AUDIO
TITLE "Walkin' Around In Summer Sand"
PERFORMER "Atlas"
REM COMPOSER ""
INDEX 01 00:00:00
FILE "09 - Love Beach.wav" WAVE
TRACK 09 AUDIO
TITLE "Love Beach"
PERFORMER "Atlas"
REM COMPOSER ""
INDEX 01 00:00:00
FILE "10 - Madrigl.wav" WAVE
TRACK 10 AUDIO
TITLE "Madrigl"
PERFORMER "Atlas"
REM COMPOSER ""
INDEX 01 00:00:00
 
DR Log
foobar2000 1.1.10 / Dynamic Range Meter 1.1.1
log date: 2018-06-20 10:35:53
--------------------------------------------------------------------------------
Analyzed: Atlas / Breeze
--------------------------------------------------------------------------------
DR Peak RMS Duration Track
--------------------------------------------------------------------------------
DR14 0.00 dB -17.21 dB 5:31 ?-Mediterranean Breeze
DR15 0.00 dB -17.68 dB 4:35 ?-Simpatia
DR15 0.00 dB -17.78 dB 3:47 ?-After Brunch With You
DR14 0.00 dB -17.71 dB 4:13 ?-Summer Breeze
DR14 -4.61 dB -21.52 dB 4:29 ?-Never Come Into Your Eyes
DR12 -2.39 dB -16.66 dB 4:38 ?-Indige
DR13 -6.82 dB -24.20 dB 5:24 ?-Breeze For Siesta
DR17 -1.50 dB -21.56 dB 3:14 ?-Walkin' Around In Summer Sand
DR15 -1.94 dB -18.85 dB 4:12 ?-Love Beach
DR13 -1.14 dB -18.65 dB 5:37 ?-Madrigl
--------------------------------------------------------------------------------
Number of tracks: 10
Official DR value: DR14
Samplerate: 44100 Hz
Channels: 2
Bits per sample: 16
Bitrate: 731 kbps
Codec: FLAC
================================================================================
 
Состав
Acoustic Guitar, Chorus – Kazuyuki Komuro
Bass – Kenichi Kawano, Yoshihiro Yasuhara
Chorus – Hiroshi Mukai, Yayoi Kurebayashi
Keyboards – Hiroyuki Namba, Toshiro Imaizumi
Drums – "Rika" Tohru Suzuki
Electric Guitar – Eiichi Segawa, Jun Sumida
Percussion – Masato Kawase
Programmed By – Yuko Kimura
Synthesizer – Hideyuki Hayashi

Раздаю до первых 5-ти скачавших, на раздачи не возвращаюсь...
Приватный:
Нет (DHT включён)
Размер:
268.68 Мб (281,734,983 байт) » файлов: 21
Участники:
0 раздают, 0 качают (0 участников всего)
Внешние участники:
3 раздают, 1 качают (4 участников всего) [ Обновить ]
No seeders - write a personal message to user M0p94ok. Нет сидеров - пишите личное сообщение пользователю M0p94ok.
15:59
90
Нет комментариев. Ваш будет первым!