Поиск

(Jazz-Funk, Soul, Latin Jazz) [CD] Cesar 830 - Cesar - 1975 (Remastered 2013), FLAC (tracks+.cue), lossless

(Jazz-Funk, Soul, Latin Jazz) [CD] Cesar 830 - Cesar - 1975 (Remastered 2013), FLAC (tracks+.cue), lossless
Треклист:
Cesar 830 / Cesar
Жанр: Jazz-Funk, Soul, Latin Jazz
Носитель: CD
Страна-производитель диска (релиза): EU
Год издания: 1975
Год издания CD: 2013
Издатель (лейбл): BGP Records
Номер по каталогу: CDBGPM 261
Аудиокодек: FLAC (*.flac)
Тип рипа: tracks+.cue
Битрейт аудио: lossless
Продолжительность: 38:47
Источник (релизер): DP
Наличие сканов в содержимом раздачи:Front
Треклист:
1. Descarga (06:20)
2. See Saw Affair (03:22)
3. The Devil & Montezuma (06:00)
4. Navidad Latino (03:30)
5. Azucar (05:30)
6. Gotta Get Away (03:36)
7. Bridges (05:00)
8. The Lady In My Life (05:29)
 
Лог создания рипа
Exact Audio Copy V1.0 beta 3 from 29. August 2011
EAC extraction logfile from 25. December 2014, 12:52
Cesar 830 / Cesar
Used drive : HL-DT-STDVDRAM SP60NB50 Adapter: 2 ID: 1
Read mode : Secure
Utilize accurate stream : Yes
Defeat audio cache : Yes
Make use of C2 pointers : No
Read offset correction : 6
Overread into Lead-In and Lead-Out : No
Fill up missing offset samples with silence : Yes
Delete leading and trailing silent blocks : No
Null samples used in CRC calculations : Yes
Used interface : Native Win32 interface for Win NT & 2000
Gap handling : Appended to previous track
Used output format : User Defined Encoder
Selected bitrate : 1024 kBit/s
Quality : High
Add ID3 tag : No
Command line compressor : C:\Program Files (x86)\Exact Audio Copy\Flac\flac.exe
Additional command line options : -8 -V -T "ARTIST=%artist%" -T "TITLE=%title%" -T "ALBUM=%albumtitle%" -T "DATE=%year%" -T "TRACKNUMBER=%tracknr%" -T "GENRE=%genre%" -T "PERFORMER=%albuminterpret%" -T "COMPOSER=%composer%" %haslyrics%--tag-from-file=LYRICS="%lyricsfile%"%haslyrics% -T "ALBUMARTIST=%albumartist%" -T "DISCNUMBER=%cdnumber%" -T "TOTALDISCS=%totalcds%" -T "TOTALTRACKS=%numtracks%" -T "COMMENT=%comment%" %source% -o %dest%
TOC of the extracted CD
Track | Start | Length | Start sector | End sector
---------------------------------------------------------
1 | 0:00.00 | 6:19.12 | 0 | 28436
2 | 6:19.12 | 3:23.19 | 28437 | 43680
3 | 9:42.31 | 6:00.22 | 43681 | 70702
4 | 15:42.53 | 3:27.15 | 70703 | 86242
5 | 19:09.68 | 5:31.56 | 86243 | 111123
6 | 24:41.49 | 3:37.12 | 111124 | 127410
7 | 28:18.61 | 5:01.12 | 127411 | 149997
8 | 33:19.73 | 5:27.20 | 149998 | 174542
Track 1
Filename C:\FLAC Rips\Cesar 830 - Cesar (1975) [FLAC] {CDBGPM 261}\01 - Descarga.wav
Pre-gap length 0:00:02.00
Peak level 96.1 %
Extraction speed 1.2 X
Track quality 100.0 %
Test CRC 602A91F4
Copy CRC 602A91F4
Track not present in AccurateRip database
Copy OK
Track 2
Filename C:\FLAC Rips\Cesar 830 - Cesar (1975) [FLAC] {CDBGPM 261}\02 - See Saw Affair.wav
Pre-gap length 0:00:02.08
Peak level 96.1 %
Extraction speed 1.2 X
Track quality 100.0 %
Test CRC A53EF06D
Copy CRC A53EF06D
Track not present in AccurateRip database
Copy OK
Track 3
Filename C:\FLAC Rips\Cesar 830 - Cesar (1975) [FLAC] {CDBGPM 261}\03 - The Devil & Montezuma.wav
Pre-gap length 0:00:01.62
Peak level 96.1 %
Extraction speed 1.5 X
Track quality 100.0 %
Test CRC 91A999CA
Copy CRC 91A999CA
Track not present in AccurateRip database
Copy OK
Track 4
Filename C:\FLAC Rips\Cesar 830 - Cesar (1975) [FLAC] {CDBGPM 261}\04 - Navidad Latina.wav
Pre-gap length 0:00:01.97
Peak level 96.1 %
Extraction speed 1.5 X
Track quality 100.0 %
Test CRC 6D3C4913
Copy CRC 6D3C4913
Track not present in AccurateRip database
Copy OK
Track 5
Filename C:\FLAC Rips\Cesar 830 - Cesar (1975) [FLAC] {CDBGPM 261}\05 - Azucar.wav
Pre-gap length 0:00:01.53
Peak level 96.1 %
Extraction speed 1.7 X
Track quality 100.0 %
Test CRC 46A043A5
Copy CRC 46A043A5
Track not present in AccurateRip database
Copy OK
Track 6
Filename C:\FLAC Rips\Cesar 830 - Cesar (1975) [FLAC] {CDBGPM 261}\06 - Gotta Get Away.wav
Pre-gap length 0:00:01.42
Peak level 96.1 %
Extraction speed 1.7 X
Track quality 100.0 %
Test CRC 9FEA1ED6
Copy CRC 9FEA1ED6
Track not present in AccurateRip database
Copy OK
Track 7
Filename C:\FLAC Rips\Cesar 830 - Cesar (1975) [FLAC] {CDBGPM 261}\07 - Bridges.wav
Pre-gap length 0:00:01.29
Peak level 96.1 %
Extraction speed 1.8 X
Track quality 100.0 %
Test CRC 43BF50FB
Copy CRC 43BF50FB
Track not present in AccurateRip database
Copy OK
Track 8
Filename C:\FLAC Rips\Cesar 830 - Cesar (1975) [FLAC] {CDBGPM 261}\08 - The Lady In My Life.wav
Pre-gap length 0:00:01.93
Peak level 96.1 %
Extraction speed 1.9 X
Track quality 100.0 %
Test CRC 8F9DB4ED
Copy CRC 8F9DB4ED
Track not present in AccurateRip database
Copy OK
None of the tracks are present in the AccurateRip database
No errors occurred
End of status report
---- CUETools DB Plugin V2.1.3
[CTDB TOCID: UMY7SkxYXenjydGlnFz5JEJQlqQ-] disk not present in database, Submit result: UMY7SkxYXenjydGlnFz5JEJQlqQ- has been uploaded
==== Log checksum 4AE9E5599096D585FD0A010DC4FDE288BF8367EE581A95CD4487C32CE6EEB101 ====
 
Содержание индексной карты (.CUE)
REM GENRE "Latin Jazz"
REM DATE 1975
REM DISCID 53091708
REM COMMENT "ExactAudioCopy v1.0b3"
PERFORMER "Cesar 830"
TITLE "Cesar"
FILE "01 - Descarga.wav" WAVE
TRACK 01 AUDIO
TITLE "Descarga"
PERFORMER "Cesar 830"
ISRC GB03A1300094
INDEX 01 00:00:00
TRACK 02 AUDIO
TITLE "See Saw Affair"
PERFORMER "Cesar 830"
ISRC GB03A1300034
INDEX 00 06:17:06
FILE "02 - See Saw Affair.wav" WAVE
INDEX 01 00:00:00
TRACK 03 AUDIO
TITLE "The Devil & Montezuma"
PERFORMER "Cesar 830"
ISRC GB03A1300095
INDEX 00 03:21:47
FILE "03 - The Devil & Montezuma.wav" WAVE
INDEX 01 00:00:00
TRACK 04 AUDIO
TITLE "Navidad Latina"
PERFORMER "Cesar 830"
ISRC GB03A1300096
INDEX 00 05:58:24
FILE "04 - Navidad Latina.wav" WAVE
INDEX 01 00:00:00
TRACK 05 AUDIO
TITLE "Azucar"
PERFORMER "Cesar 830"
ISRC GB03A1300097
INDEX 00 03:25:50
FILE "05 - Azucar.wav" WAVE
INDEX 01 00:00:00
TRACK 06 AUDIO
TITLE "Gotta Get Away"
PERFORMER "Cesar 830"
ISRC GB03A1300098
INDEX 00 05:30:24
FILE "06 - Gotta Get Away.wav" WAVE
INDEX 01 00:00:00
TRACK 07 AUDIO
TITLE "Bridges"
PERFORMER "Cesar 830"
ISRC GB03A1300099
INDEX 00 03:35:65
FILE "07 - Bridges.wav" WAVE
INDEX 01 00:00:00
TRACK 08 AUDIO
TITLE "The Lady In My Life"
PERFORMER "Cesar 830"
ISRC GB03A1300100
INDEX 00 04:59:17
FILE "08 - The Lady In My Life.wav" WAVE
INDEX 01 00:00:00
 
DR Log
foobar2000 1.1.10 / Dynamic Range Meter 1.1.1
log date: 2018-06-20 10:32:30
--------------------------------------------------------------------------------
Analyzed: Cesar 830 / Cesar
--------------------------------------------------------------------------------
DR Peak RMS Duration Track
--------------------------------------------------------------------------------
DR12 -0.34 dB -13.22 dB 6:19 ?-Descarga
DR11 -0.34 dB -12.10 dB 3:23 ?-See Saw Affair
DR10 -0.34 dB -12.02 dB 6:00 ?-The Devil & Montezuma
DR11 -0.34 dB -12.59 dB 3:27 ?-Navidad Latina
DR11 -0.34 dB -12.34 dB 5:32 ?-Azucar
DR11 -0.34 dB -12.75 dB 3:37 ?-Gotta Get Away
DR11 -0.34 dB -13.53 dB 5:01 ?-Bridges
DR11 -0.34 dB -12.44 dB 5:27 ?-The Lady In My Life
--------------------------------------------------------------------------------
Number of tracks: 8
Official DR value: DR11
Samplerate: 44100 Hz
Channels: 2
Bits per sample: 16
Bitrate: 903 kbps
Codec: FLAC
================================================================================
 
Состав
Arranged By, Conductor – Teo Macero
Bass – Harold Martin, Thomas Rutley
Bongos, Bells – Willis Colon
Congas – Francisco Aquabella
Drums – Tony Smith
Flute – Hadley Caliman
Guitar – Jim Vincent, Joe Jammer, Stephen Busfield
Piano – Cesar Ascarrunz, Mark Levine, Merl Saunders
Saxophone [Alto] – Martin Fierro
Saxophone [Soprano] – Steve Marcus
Saxophone [Tenor] – Hadley Caliman, Martin Fierro
Timbales – Benny Velarde
Trombone – Jules Rowell
Trumpet – Joseph Ellis, Jr.
Vocals – Benny Velarde, Francisco Aquabella, Linda Tillery, Tony Smith, Willis Colon

Раздаю до первых 5-ти скачавших, на раздачи не возвращаюсь...
Приватный:
Нет (DHT включён)
Размер:
249.15 Мб (261,256,517 байт) » файлов: 14
Участники:
0 раздают, 0 качают (0 участников всего)
Внешние участники:
1 раздают, 0 качают (1 участников всего) [ Обновить ]
Есть вопросы - пишите личное сообщение пользователю M0p94ok.
15:59
70
Нет комментариев. Ваш будет первым!