Поиск

(Funk, Soul) [CD] The Edge of Daybreak - Eyes of Love - 1979/2015, FLAC (tracks+.cue), lossless

(Funk, Soul) [CD] The Edge of Daybreak - Eyes of Love - 1979/2015, FLAC (tracks+.cue), lossless
Треклист:
The Edge of Daybreak / Eyes of Love
Жанр: Funk, Soul
Носитель: CD
Страна-производитель диска (релиза): USA
Год издания: 1979
Год издания CD: 2015
Издатель (лейбл): Numero Group
Номер по каталогу: 061
Аудиокодек: FLAC (*.flac)
Тип рипа: tracks+.cue
Битрейт аудио: lossless
Продолжительность: 36:30
Источник (релизер): DP
Наличие сканов в содержимом раздачи: да
Треклист:
1. Eyes of Love (4:13)
2. I Wanna Dance With You (4:59)
3. Let Us (5:11)
4. Let's Be Friends (3:18)
5. Edge of Daybreak (4:02)
6. Your Destiny (4:28)
7. Bring Me You (5:00)
8. Our Love (5:18)
 
Лог создания рипа
Exact Audio Copy V1.0 beta 6 from 9. April 2015
EAC extraction logfile from 14. October 2015, 11:59
The Edge of Daybreak / Eyes of Love
Used drive : HP DVD Writer 1260r Adapter: 1 ID: 0
Read mode : Secure
Utilize accurate stream : Yes
Defeat audio cache : Yes
Make use of C2 pointers : No
Read offset correction : 48
Overread into Lead-In and Lead-Out : No
Fill up missing offset samples with silence : Yes
Delete leading and trailing silent blocks : No
Null samples used in CRC calculations : Yes
Used interface : Native Win32 interface for Win NT & 2000
Gap handling : Appended to previous track
Used output format : User Defined Encoder
Selected bitrate : 1024 kBit/s
Quality : High
Add ID3 tag : No
Command line compressor : C:\Program Files (x86)\Exact Audio Copy\Flac\flac.exe
Additional command line options : -8 -V -T "ARTIST=%artist%" -T "TITLE=%title%" -T "ALBUM=%albumtitle%" -T "DATE=%year%" -T "TRACKNUMBER=%tracknr%" -T "GENRE=%genre%" -T "PERFORMER=%albuminterpret%" -T "COMPOSER=%composer%" %haslyrics%--tag-from-file=LYRICS="%lyricsfile%"%haslyrics% -T "ALBUMARTIST=%albumartist%" -T "DISCNUMBER=%cdnumber%" -T "TOTALDISCS=%totalcds%" -T "TOTALTRACKS=%numtracks%" -T "COMMENT=%comment%" %source% -o %dest%
TOC of the extracted CD
Track | Start | Length | Start sector | End sector
---------------------------------------------------------
1 | 0:00.00 | 4:14.05 | 0 | 19054
2 | 4:14.05 | 4:58.66 | 19055 | 41470
3 | 9:12.71 | 5:10.48 | 41471 | 64768
4 | 14:23.44 | 3:17.73 | 64769 | 79616
5 | 17:41.42 | 4:02.16 | 79617 | 97782
6 | 21:43.58 | 4:28.63 | 97783 | 117945
7 | 26:12.46 | 5:00.03 | 117946 | 140448
8 | 31:12.49 | 5:17.48 | 140449 | 164271
Track 1
Filename C:\The Edge of Daybreak - Eyes of Love (1979) [FLAC]\01 - Eyes of Love.wav
Pre-gap length 0:00:02.00
Peak level 98.8 %
Extraction speed 2.4 X
Track quality 100.0 %
Test CRC D03DCBBE
Copy CRC D03DCBBE
Track not present in AccurateRip database
Copy OK
Track 2
Filename C:\The Edge of Daybreak - Eyes of Love (1979) [FLAC]\02 - I Wanna Dance With You.wav
Pre-gap length 0:00:01.01
Peak level 98.8 %
Extraction speed 2.8 X
Track quality 100.0 %
Test CRC 9B62ECC7
Copy CRC 9B62ECC7
Track not present in AccurateRip database
Copy OK
Track 3
Filename C:\The Edge of Daybreak - Eyes of Love (1979) [FLAC]\03 - Let Us.wav
Pre-gap length 0:00:01.62
Peak level 98.9 %
Extraction speed 3.1 X
Track quality 100.0 %
Test CRC 86E9192F
Copy CRC 86E9192F
Track not present in AccurateRip database
Copy OK
Track 4
Filename C:\The Edge of Daybreak - Eyes of Love (1979) [FLAC]\04 - Let's Be Friends.wav
Pre-gap length 0:00:02.82
Peak level 98.8 %
Extraction speed 3.1 X
Track quality 100.0 %
Test CRC 89F0D5B7
Copy CRC 89F0D5B7
Track not present in AccurateRip database
Copy OK
Track 5
Filename C:\The Edge of Daybreak - Eyes of Love (1979) [FLAC]\05 - E.O.D. (Edge of Daybreak).wav
Pre-gap length 0:00:01.22
Peak level 98.8 %
Extraction speed 3.4 X
Track quality 100.0 %
Test CRC 824A103D
Copy CRC 824A103D
Track not present in AccurateRip database
Copy OK
Track 6
Filename C:\The Edge of Daybreak - Eyes of Love (1979) [FLAC]\06 - Your Destiny.wav
Pre-gap length 0:00:01.76
Peak level 98.8 %
Extraction speed 3.6 X
Track quality 100.0 %
Test CRC 5C17505F
Copy CRC 5C17505F
Track not present in AccurateRip database
Copy OK
Track 7
Filename C:\The Edge of Daybreak - Eyes of Love (1979) [FLAC]\07 - Bring Me You.wav
Pre-gap length 0:00:02.57
Peak level 98.8 %
Extraction speed 3.9 X
Track quality 100.0 %
Test CRC DDA0BB1B
Copy CRC DDA0BB1B
Track not present in AccurateRip database
Copy OK
Track 8
Filename C:\The Edge of Daybreak - Eyes of Love (1979) [FLAC]\08 - Our Love.wav
Pre-gap length 0:00:01.88
Peak level 98.8 %
Extraction speed 4.1 X
Track quality 100.0 %
Test CRC C08929AB
Copy CRC C08929AB
Track not present in AccurateRip database
Copy OK
None of the tracks are present in the AccurateRip database
No errors occurred
End of status report
---- CUETools DB Plugin V2.1.6
[CTDB TOCID: ZZsHYG7eKZ4RZpShbwBwo.PIwy8-] disk not present in database
Submit result: ZZsHYG7eKZ4RZpShbwBwo.PIwy8- has been uploaded
==== Log checksum FAA08028320ED0044C43C3EF241FAC3FF7BE384799C9F5584238050308486752 ====
 
Содержание индексной карты (.CUE)
REM GENRE Soul
REM DATE 1979
REM DISCID 68088E08
REM COMMENT "ExactAudioCopy v1.0b6"
PERFORMER "The Edge of Daybreak"
TITLE "Eyes of Love"
FILE "01 - Eyes of Love.wav" WAVE
TRACK 01 AUDIO
TITLE "Eyes of Love"
PERFORMER "The Edge of Daybreak"
INDEX 01 00:00:00
TRACK 02 AUDIO
TITLE "I Wanna Dance With You"
PERFORMER "The Edge of Daybreak"
INDEX 00 04:13:04
FILE "02 - I Wanna Dance With You.wav" WAVE
INDEX 01 00:00:00
TRACK 03 AUDIO
TITLE "Let Us"
PERFORMER "The Edge of Daybreak"
INDEX 00 04:57:19
FILE "03 - Let Us.wav" WAVE
INDEX 01 00:00:00
TRACK 04 AUDIO
TITLE "Let's Be Friends"
PERFORMER "The Edge of Daybreak"
INDEX 00 05:07:61
FILE "04 - Let's Be Friends.wav" WAVE
INDEX 01 00:00:00
TRACK 05 AUDIO
TITLE "E.O.D. (Edge of Daybreak)"
PERFORMER "The Edge of Daybreak"
INDEX 00 03:16:56
FILE "05 - E.O.D. (Edge of Daybreak).wav" WAVE
INDEX 01 00:00:00
TRACK 06 AUDIO
TITLE "Your Destiny"
PERFORMER "The Edge of Daybreak"
INDEX 00 04:00:34
FILE "06 - Your Destiny.wav" WAVE
INDEX 01 00:00:00
TRACK 07 AUDIO
TITLE "Bring Me You"
PERFORMER "The Edge of Daybreak"
INDEX 00 04:26:20
FILE "07 - Bring Me You.wav" WAVE
INDEX 01 00:00:00
TRACK 08 AUDIO
TITLE "Our Love"
PERFORMER "The Edge of Daybreak"
INDEX 00 04:58:12
FILE "08 - Our Love.wav" WAVE
INDEX 01 00:00:00
 
DR Log
foobar2000 1.1.10 / Dynamic Range Meter 1.1.1
log date: 2018-06-18 13:03:57
--------------------------------------------------------------------------------
Analyzed: The Edge of Daybreak / Eyes of Love
--------------------------------------------------------------------------------
DR Peak RMS Duration Track
--------------------------------------------------------------------------------
DR11 -0.10 dB -13.44 dB 4:14 ?-Eyes of Love
DR9 -0.10 dB -11.23 dB 4:59 ?-I Wanna Dance With You
DR10 -0.10 dB -12.27 dB 5:11 ?-Let Us
DR10 -0.10 dB -12.37 dB 3:18 ?-Let's Be Friends
DR9 -0.10 dB -11.28 dB 4:02 ?-E.O.D. (Edge of Daybreak)
DR9 -0.10 dB -11.25 dB 4:29 ?-Your Destiny
DR10 -0.10 dB -13.15 dB 5:00 ?-Bring Me You
DR10 -0.10 dB -12.47 dB 5:18 ?-Our Love
--------------------------------------------------------------------------------
Number of tracks: 8
Official DR value: DR10
Samplerate: 44100 Hz
Channels: 2
Bits per sample: 16
Bitrate: 828 kbps
Codec: FLAC
================================================================================
 
Об исполнителе (группе)
Incarcerated funk has no right to feel this free. Musical convicts and actual convicts from across the Commonwealth, The Edge Of Daybreak's membership wrote and recorded Eyes Of Love while serving out sentences of six to sixty years. Set to tape inside Powhatan Correctional Center on the outskirts of Richmond, Virginia, these intimate 1979 sessions unlock the prison gates and peer into a collective consciousness concocted by a core of four confined artists. Assembled from distant love ballads and fanciful odes to freedom, Eyes Of Love is a prison letter composed by committee, recorded hastily, and circulated regionally amongst adventurous clientele willing to take a chance on these felonious talents.
 
Состав
Bass – Robert Cole
Bass, Keyboards, Guitar, Vocals, Brass, Woodwind – Robert Glover
Congas, Bongos, Percussion – Willie Williams
Keyboards, Trumpet, Vocals, Management – James Carrington
Lead Guitar, Bass, Drums, Vocals – Cornelius Cade
Lead Vocals, Drums – Jamal Jaha Nubi
Lead Vocals, Percussion, Directed By [Vocals] – Harry Coleman
Rhythm Guitar – McArthur Duncan
Vocals, Bass – Larry Griffin

Раздаю до первых 5-ти скачавших, на раздачи не возвращаюсь...
Приватный:
Нет (DHT включён)
Размер:
237.53 Мб (249,066,010 байт) » файлов: 19
Участники:
0 раздают, 0 качают (0 участников всего)
Внешние участники:
3 раздают, 1 качают (4 участников всего) [ Обновить ]
Есть вопросы - пишите личное сообщение пользователю M0p94ok.
15:58
54
Нет комментариев. Ваш будет первым!