Поиск

(Funk, Soul, Disco) [CD] B.T. Express - Non-Stop / Shout! - 2005, APE (image+.cue), lossless

(Funk, Soul, Disco) [CD] B.T. Express - Non-Stop / Shout! - 2005, APE (image+.cue), lossless
Треклист:
B.T. Express / Non-Stop / Shout!
Жанр: Funk, Soul, Disco
Носитель: CD
Страна-производитель диска (релиза): UK
Год издания: 2005
Издатель (лейбл): Edsel Records
Номер по каталогу: DIAB 8068
Страна исполнителя (группы): US
Аудиокодек: APE (*.ape)
Тип рипа: image+.cue
Битрейт аудио: lossless
Продолжительность: 01:19:32
Источник (релизер): DC hub
Наличие сканов в содержимом раздачи: да
Треклист:
Non-Stop 1975
1 Peace Pipe
2 Give It What You Got
3 Discotizer
4 Still Good, Still Like It
5 Close To You
6 You Got It - I Want It
7 Devil's Workshop
8 Happiness
9 Whatcha Think About That?
Shout! 1978
10 Shout It Out
11 What You Do In The Dark
12 Put It In (The Pocket)
13 I Want You With Me
14 Shake It Off
15 You Got Something
16 Look At The People
17 It's In Your Blood
18 Ride On B.T.
 
Содержание индексной карты (.CUE)
PERFORMER "B.T. Express"
TITLE "Non Stop + Shout"
FILE "B.T. Express - Non Stop + Shout.ape" WAVE
TRACK 01 AUDIO
TITLE "Peace Pipe"
PERFORMER "B.T. Express"
INDEX 01 00:00:00
TRACK 02 AUDIO
TITLE "Give It What You Got"
PERFORMER "B.T. Express"
INDEX 01 06:04:41
TRACK 03 AUDIO
TITLE "Discotizer"
PERFORMER "B.T. Express"
INDEX 01 10:13:65
TRACK 04 AUDIO
TITLE "Still Good, Still Like It"
PERFORMER "B.T. Express"
INDEX 01 13:23:52
TRACK 05 AUDIO
TITLE "Close To You"
PERFORMER "B.T. Express"
INDEX 01 17:44:43
TRACK 06 AUDIO
TITLE "You Got It - I Want It"
PERFORMER "B.T. Express"
INDEX 01 23:01:74
TRACK 07 AUDIO
TITLE "Devil's Workshop"
PERFORMER "B.T. Express"
INDEX 01 27:12:57
TRACK 08 AUDIO
TITLE "Happiness"
PERFORMER "B.T. Express"
INDEX 01 30:53:38
TRACK 09 AUDIO
TITLE "Whatcha Think About That?"
PERFORMER "B.T. Express"
INDEX 01 34:12:29
TRACK 10 AUDIO
TITLE "Shout It Out"
PERFORMER "B.T. Express"
INDEX 01 37:44:64
TRACK 11 AUDIO
TITLE "What You Do In The Dark"
PERFORMER "B.T. Express"
INDEX 01 43:21:69
TRACK 12 AUDIO
TITLE "Put It In (Your Pocket)"
PERFORMER "B.T. Express"
INDEX 01 48:39:31
TRACK 13 AUDIO
TITLE "I Want You With Me"
PERFORMER "B.T. Express"
INDEX 01 53:39:71
TRACK 14 AUDIO
TITLE "Shake It Off"
PERFORMER "B.T. Express"
INDEX 01 58:53:38
TRACK 15 AUDIO
TITLE "You Got Something"
PERFORMER "B.T. Express"
INDEX 01 64:04:18
TRACK 16 AUDIO
TITLE "Look At The People"
PERFORMER "B.T. Express"
INDEX 01 67:47:15
TRACK 17 AUDIO
TITLE "It's In Your Blood"
PERFORMER "B.T. Express"
INDEX 01 71:04:12
TRACK 18 AUDIO
TITLE "Ride On B.T."
PERFORMER "B.T. Express"
INDEX 01 74:45:05
 
Лог проверки качества
AUDIOCHECKER v2.0 beta (build 457) - by Dester - opdester@freemail.hu
~~~~~~~~~~~~~~~~~~~~~~~~~~~~~~~~~~
-=== DO NOT EDIT THIS FILE! ===-
Path: ...\02 - Non Stop & Shout - 1975,1978 (2005)
1 -=- B.T. Express - Non Stop + Shout.ape -=- CDDA (100%)
190624644
Приватный:
Нет (DHT включён)
Размер:
530.10 Мб (555,855,213 байт) » файлов: 8
Участники:
0 раздают, 0 качают (0 участников всего)
Внешние участники:
1 раздают, 0 качают (1 участников всего) [ Обновить ]
Есть вопросы - пишите личное сообщение пользователю M0p94ok.
15:57
63
Нет комментариев. Ваш будет первым!