Поиск

(Funk, Soul, Disco) [CD] B.T. Express - Energy To Burn / 1980 - 2005, APE (tracks+.cue), lossless

(Funk, Soul, Disco) [CD] B.T. Express - Energy To Burn / 1980 - 2005, APE (tracks+.cue), lossless
Треклист:
B.T. Express / Energy To Burn / 1980
Жанр: Funk, Soul, Disco
Носитель: CD
Страна-производитель диска (релиза): UK
Год издания: 2005
Издатель (лейбл): Edsel Records
Номер по каталогу: DIAB 8069
Страна исполнителя (группы): US
Аудиокодек: APE (*.ape)
Тип рипа: image+.cue
Битрейт аудио: lossless
Источник (релизер): DC hub
Наличие сканов в содержимом раздачи: да
Треклист:
Energy To Burn 1976
1 Depend On Yourself
2 Can't Stop Groovin' Now (Wanna Do It Some More)
3 Now That We've Found Love
4 Energy To Burn
5 Time Tunnel
6 Make Your Body Move
7 Herbs
8 Energy Level
1980
9 Takin' Off
10 Heart Of Fire
11 Does It Feel Good
12 Give Up The Funk (Let's Dance)
13 Closer
14 Have Some Fun
15 Better Late Than Never
16 Funk Theory
 
Содержание индексной карты (.CUE)
PERFORMER "B.T. Express"
TITLE "Energy to Burn & 1980"
FILE "B.T. Express - Energy to Burn & 1980.ape" WAVE
TRACK 01 AUDIO
TITLE "Depend on Yourself"
PERFORMER "B.T. Express"
INDEX 01 00:00:00
TRACK 02 AUDIO
TITLE "Can't Stop Groovin' Now (Wanna Do It Some More)"
PERFORMER "B.T. Express"
INDEX 01 07:01:25
TRACK 03 AUDIO
TITLE "Now That We've Found Love"
PERFORMER "B.T. Express"
INDEX 01 12:53:63
TRACK 04 AUDIO
TITLE "Energy to Burn"
PERFORMER "B.T. Express"
INDEX 01 19:23:28
TRACK 05 AUDIO
TITLE "Time Tunnel"
PERFORMER "B.T. Express"
INDEX 01 25:25:33
TRACK 06 AUDIO
TITLE "Make Your Body Move"
PERFORMER "B.T. Express"
INDEX 01 28:53:24
TRACK 07 AUDIO
TITLE "Herbs"
PERFORMER "B.T. Express"
INDEX 01 34:07:17
TRACK 08 AUDIO
TITLE "Energy Level"
PERFORMER "B.T. Express"
INDEX 01 36:53:12
TRACK 09 AUDIO
TITLE "Takin' Off"
PERFORMER "B.T. Express"
INDEX 01 40:43:62
TRACK 10 AUDIO
TITLE "Heart of Fire"
PERFORMER "B.T. Express"
INDEX 01 44:35:33
TRACK 11 AUDIO
TITLE "Does It Feel Good"
PERFORMER "B.T. Express"
INDEX 01 48:27:39
TRACK 12 AUDIO
TITLE "Give up the Funk (Let's Dance)"
PERFORMER "B.T. Express"
INDEX 01 54:50:49
TRACK 13 AUDIO
TITLE "Closer"
PERFORMER "B.T. Express"
INDEX 01 61:04:28
TRACK 14 AUDIO
TITLE "Have Some Fun"
PERFORMER "B.T. Express"
INDEX 01 64:37:51
TRACK 15 AUDIO
TITLE "Better Late Than Never"
PERFORMER "B.T. Express"
INDEX 01 69:57:36
TRACK 16 AUDIO
TITLE "Funk Theory"
PERFORMER "B.T. Express"
INDEX 01 75:29:55
 
Лог проверки качества
AUDIOCHECKER v2.0 beta (build 457) - by Dester - opdester@freemail.hu
~~~~~~~~~~~~~~~~~~~~~~~~~~~~~~~~~~
-=== DO NOT EDIT THIS FILE! ===-
Path: ...\03 - Energy To Burn & 1980 - 1976,1980 (2005)
1 -=- B.T. Express - Energy to Burn & 1980.ape -=- CDDA (100%)
252901508
Приватный:
Нет (DHT включён)
Размер:
512.01 Мб (536,884,216 байт) » файлов: 7
Участники:
0 раздают, 0 качают (0 участников всего)
Внешние участники:
3 раздают, 1 качают (4 участников всего) [ Обновить ]
Есть вопросы - пишите личное сообщение пользователю M0p94ok.
15:57
53
Нет комментариев. Ваш будет первым!