Поиск

(Funk, Soul, P.Funk) [CD] Bootsy Collins - Christmas Is 4 Ever - 2006, FLAC (tracks+.cue), lossless

(Funk, Soul, P.Funk) [CD] Bootsy Collins - Christmas Is 4 Ever - 2006, FLAC (tracks+.cue), lossless
Треклист:
Bootsy Collins / Christmas Is 4 Ever
Жанр: Funk, Soul, P.Funk
Носитель: CD
Страна-производитель диска (релиза): US
Год издания: 2006
Издатель (лейбл): Shout! Factory
Номер по каталогу: GEL 4104
Страна исполнителя (группы): US
Аудиокодек: FLAC (*.flac)
Тип рипа: tracks+.cue
Битрейт аудио: lossless
Продолжительность: 1:08:35
Источник (релизер): собственный рип
Наличие сканов в содержимом раздачи: да (discogs)
Треклист:
01. N-Yo-City 3:05
02. Merry Christmas Baby 4:29
03. Jingle Belz (AKA Jingle Bells) 4:58
04. Happy Holidaze 6:29
05. Chestnutz (AKA The Christmas Song) 5:05
06. WinterFunkyLand (AKA Winter Wonderland) 6:57
07. Santa's Coming (AKA Santa Claus Is Coming To Town) 4:58
08. Boot-Off (AKA Rudolph The Red-Nosed Reindeer) 5:23
09. Silent Night 5:33
10. Sleigh Ride 6:03
11. Dis-Christmiss (AKA This Christmas) 3:27
12. Be-With-You 6:12
13. Christmas Is 4 Ever 5:50
 
О релизе:
Produced, Recorded and Mixed by Bootsy Collins
Bootsy Claus Is Coming To Town
Have Yourself a Funky Christmas
With Snoop Dogg and friends
from the P-Funk Family
 
Отчёт EAC
Exact Audio Copy V1.3 from 2. September 2016
EAC extraction logfile from 13. April 2017, 13:15
Bootsy Collins / Christmas Is 4 Ever
Used drive : ATAPI iHAS122 F Adapter: 1 ID: 0
Read mode : Secure
Utilize accurate stream : Yes
Defeat audio cache : Yes
Make use of C2 pointers : No
Read offset correction : 6
Overread into Lead-In and Lead-Out : No
Fill up missing offset samples with silence : Yes
Delete leading and trailing silent blocks : No
Null samples used in CRC calculations : Yes
Used interface : Native Win32 interface for Win NT & 2000
Gap handling : Appended to previous track
Used output format : User Defined Encoder
Selected bitrate : 128 kBit/s
Quality : High
Add ID3 tag : No
Command line compressor : C:\Program Files (x86)\Exact Audio Copy\Flac\flac.exe
Additional command line options : -V -8 -T "Genre=%genre%" -T "Artist=%artist%" -T "Title=%title%" -T "Album=%albumtitle%" -T "Date=%year%" -T "Tracknumber=%tracknr%" -T "Comment=%comment%" %source%
TOC of the extracted CD
Track | Start | Length | Start sector | End sector
---------------------------------------------------------
1 | 0:00.00 | 3:05.35 | 0 | 13909
2 | 3:05.35 | 4:30.00 | 13910 | 34159
3 | 7:35.35 | 4:58.35 | 34160 | 56544
4 | 12:33.70 | 6:29.18 | 56545 | 85737
5 | 19:03.13 | 5:05.27 | 85738 | 108639
6 | 24:08.40 | 6:57.46 | 108640 | 139960
7 | 31:06.11 | 4:58.63 | 139961 | 162373
8 | 36:04.74 | 5:23.09 | 162374 | 186607
9 | 41:28.08 | 5:34.01 | 186608 | 211658
10 | 47:02.09 | 6:03.45 | 211659 | 238928
11 | 53:05.54 | 3:27.09 | 238929 | 254462
12 | 56:32.63 | 6:12.03 | 254463 | 282365
13 | 62:44.66 | 5:50.38 | 282366 | 308653
Track 1
Filename F:\MyCD\01 - N-Yo-City.wav
Pre-gap length 0:00:02.00
Peak level 96.6 %
Extraction speed 3.5 X
Track quality 100.0 %
Test CRC 39E48ABA
Copy CRC 39E48ABA
Accurately ripped (confidence 9) [41876326] (AR v2)
Copy OK
Track 2
Filename F:\MyCD\02 - Merry Christmas Baby.wav
Peak level 96.6 %
Extraction speed 4.1 X
Track quality 100.0 %
Test CRC 42ABCF26
Copy CRC 42ABCF26
Accurately ripped (confidence 9) [A5953A6E] (AR v2)
Copy OK
Track 3
Filename F:\MyCD\03 - Jingle Belz.wav
Peak level 96.6 %
Extraction speed 4.2 X
Track quality 99.9 %
Test CRC 17A27841
Copy CRC 17A27841
Accurately ripped (confidence 9) [3028BF5E] (AR v2)
Copy OK
Track 4
Filename F:\MyCD\04 - Happy Holidaze.wav
Peak level 96.6 %
Extraction speed 5.2 X
Track quality 100.0 %
Test CRC 9E0F8FF1
Copy CRC 9E0F8FF1
Accurately ripped (confidence 9) [146DCFED] (AR v2)
Copy OK
Track 5
Filename F:\MyCD\05 - Chestnutz.wav
Peak level 98.4 %
Extraction speed 5.5 X
Track quality 100.0 %
Test CRC D0A71C5C
Copy CRC D0A71C5C
Accurately ripped (confidence 8) [C30CB159] (AR v2)
Copy OK
Track 6
Filename F:\MyCD\06 - Winter Funky Land.wav
Peak level 96.6 %
Extraction speed 6.1 X
Track quality 100.0 %
Test CRC 1A502D6A
Copy CRC 1A502D6A
Accurately ripped (confidence 8) [33A1A1FD] (AR v2)
Copy OK
Track 7
Filename F:\MyCD\07 - Santa's Coming.wav
Peak level 96.6 %
Extraction speed 6.3 X
Track quality 100.0 %
Test CRC 3EAFFA82
Copy CRC 3EAFFA82
Accurately ripped (confidence 9) [3E9C582B] (AR v2)
Copy OK
Track 8
Filename F:\MyCD\08 - Bout-off.wav
Peak level 96.6 %
Extraction speed 6.7 X
Track quality 100.0 %
Test CRC 597AB822
Copy CRC 597AB822
Accurately ripped (confidence 8) [718F58C7] (AR v2)
Copy OK
Track 9
Filename F:\MyCD\09 - Silent Night.wav
Peak level 96.6 %
Extraction speed 6.9 X
Track quality 100.0 %
Test CRC 6A7CDE67
Copy CRC 6A7CDE67
Accurately ripped (confidence 9) [F3325470] (AR v2)
Copy OK
Track 10
Filename F:\MyCD\10 - Sleigh Ride.wav
Peak level 96.6 %
Extraction speed 7.4 X
Track quality 100.0 %
Test CRC A2C01B95
Copy CRC A2C01B95
Accurately ripped (confidence 9) [95099511] (AR v2)
Copy OK
Track 11
Filename F:\MyCD\11 - Dis-Christmiss.wav
Peak level 96.6 %
Extraction speed 6.2 X
Track quality 99.9 %
Test CRC 359FBCEE
Copy CRC 359FBCEE
Accurately ripped (confidence 9) [FC1708B0] (AR v2)
Copy OK
Track 12
Filename F:\MyCD\12 - Be-With-You.wav
Peak level 100.0 %
Extraction speed 7.9 X
Track quality 100.0 %
Test CRC 5ED1A6E8
Copy CRC 5ED1A6E8
Accurately ripped (confidence 9) [68CF3E06] (AR v2)
Copy OK
Track 13
Filename F:\MyCD\13 - Christmas Is 4 Ever.wav
Peak level 96.6 %
Extraction speed 8.1 X
Track quality 100.0 %
Test CRC EA573A6F
Copy CRC EA573A6F
Accurately ripped (confidence 9) [47CA0B9C] (AR v2)
Copy OK
All tracks accurately ripped
No errors occurred
End of status report
---- CUETools DB Plugin V2.1.6
[CTDB TOCID: 79F8XMaHfLzM29x3hmM7oXt5AD8-] found
Submit result: 79F8XMaHfLzM29x3hmM7oXt5AD8- has been confirmed
Track | CTDB Status
1 | (12/12) Accurately ripped
2 | (12/12) Accurately ripped
3 | (12/12) Accurately ripped
4 | (12/12) Accurately ripped
5 | (11/12) Accurately ripped
6 | (12/12) Accurately ripped
7 | (12/12) Accurately ripped
8 | (12/12) Accurately ripped
9 | (12/12) Accurately ripped
10 | (12/12) Accurately ripped
11 | (12/12) Accurately ripped
12 | (12/12) Accurately ripped
13 | (10/12) Accurately ripped
==== Log checksum AE007ECBBADB13847C7E44FDCFB0CC3610A3817EB9A64FB9CCC55C48EB73FCD7 ====
 
Содержание индексной карты (.CUE)
REM DATE 2006
REM DISCID C910130D
REM COMMENT "ExactAudioCopy v1.3"
PERFORMER "Bootsy Collins"
TITLE "Christmas Is 4 Ever"
REM COMPOSER ""
FILE "01 - N-Yo-City.wav" WAVE
TRACK 01 AUDIO
TITLE "N-Yo-City"
PERFORMER "Bootsy Collins"
REM COMPOSER ""
ISRC USSE90623507
INDEX 01 00:00:00
FILE "02 - Merry Christmas Baby.wav" WAVE
TRACK 02 AUDIO
TITLE "Merry Christmas Baby"
PERFORMER "Bootsy Collins"
REM COMPOSER ""
ISRC USSE90623508
INDEX 01 00:00:00
FILE "03 - Jingle Belz.wav" WAVE
TRACK 03 AUDIO
TITLE "Jingle Belz"
PERFORMER "Bootsy Collins"
REM COMPOSER ""
ISRC USSE90623509
INDEX 01 00:00:00
FILE "04 - Happy Holidaze.wav" WAVE
TRACK 04 AUDIO
TITLE "Happy Holidaze"
PERFORMER "Bootsy Collins"
REM COMPOSER ""
ISRC USSE90623510
INDEX 01 00:00:00
FILE "05 - Chestnutz.wav" WAVE
TRACK 05 AUDIO
TITLE "Chestnutz"
PERFORMER "Bootsy Collins"
REM COMPOSER ""
ISRC USSE90623511
INDEX 01 00:00:00
FILE "06 - Winter Funky Land.wav" WAVE
TRACK 06 AUDIO
TITLE "Winter Funky Land"
PERFORMER "Bootsy Collins"
REM COMPOSER ""
ISRC USSE90623512
INDEX 01 00:00:00
FILE "07 - Santa's Coming.wav" WAVE
TRACK 07 AUDIO
TITLE "Santa's Coming"
PERFORMER "Bootsy Collins"
REM COMPOSER ""
ISRC USSE90623513
INDEX 01 00:00:00
FILE "08 - Bout-off.wav" WAVE
TRACK 08 AUDIO
TITLE "Bout-off"
PERFORMER "Bootsy Collins"
REM COMPOSER ""
ISRC USSE90623514
INDEX 01 00:00:00
FILE "09 - Silent Night.wav" WAVE
TRACK 09 AUDIO
TITLE "Silent Night"
PERFORMER "Bootsy Collins"
REM COMPOSER ""
ISRC USSE90623515
INDEX 01 00:00:00
FILE "10 - Sleigh Ride.wav" WAVE
TRACK 10 AUDIO
TITLE "Sleigh Ride"
PERFORMER "Bootsy Collins"
REM COMPOSER ""
ISRC USSE90623516
INDEX 01 00:00:00
FILE "11 - Dis-Christmiss.wav" WAVE
TRACK 11 AUDIO
TITLE "Dis-Christmiss"
PERFORMER "Bootsy Collins"
REM COMPOSER ""
ISRC USSE90623517
INDEX 01 00:00:00
FILE "12 - Be-With-You.wav" WAVE
TRACK 12 AUDIO
TITLE "Be-With-You"
PERFORMER "Bootsy Collins"
REM COMPOSER ""
ISRC USSE90623518
INDEX 01 00:00:00
FILE "13 - Christmas Is 4 Ever.wav" WAVE
TRACK 13 AUDIO
TITLE "Christmas Is 4 Ever"
PERFORMER "Bootsy Collins"
REM COMPOSER ""
ISRC USSE90623519
INDEX 01 00:00:00
Приватный:
Нет (DHT включён)
Размер:
509.91 Мб (534,681,764 байт) » файлов: 25
Участники:
0 раздают, 0 качают (0 участников всего)
Внешние участники:
1 раздают, 0 качают (1 участников всего) [ Обновить ]
No seeders - write a personal message to user M0p94ok. Нет сидеров - пишите личное сообщение пользователю M0p94ok.
13:35
100
Нет комментариев. Ваш будет первым!