Поиск

(Disco, Funk, Soul) [CD] Kool & The Gang - Something Special [SHM-CD] - 2012 (1981), FLAC (tracks+.cue), lossless

(Disco, Funk, Soul) [CD] Kool & The Gang - Something Special [SHM-CD] - 2012 (1981), FLAC (tracks+.cue), lossless
Треклист:
Kool & The Gang / Something Special
Жанр: Disco, Funk, Soul
Носитель: CD
Страна-производитель диска (релиза): Japan
Год издания: 2012
Издатель (лейбл): Mercury (USM Japan)
Номер по каталогу: UICY-25311
Страна исполнителя (группы): usa
Аудиокодек: FLAC (*.flac)
Тип рипа: tracks+.cue
Битрейт аудио: lossless
Продолжительность: 36:25
Источник (релизер): CD
Наличие сканов в содержимом раздачи: да
Треклист:
01 Steppin' out (04:46)
02 Good time tonight (05:00)
03 Take my heart (04:06)
04 Be my lady (04:15)
05 Get down on it (04:53)
06 Pass it on (04:33)
07 Stand up and sing (04:29)
08 No show (04:20)
http://www.universal-music.co.jp/p/UICY-25311/
https://www.discogs.com/Kool-The-Gang-Something-Special/release/478378
 
Лог создания рипа
Exact Audio Copy V1.0 beta 2 from 29. April 2011
Отчёт EAC об извлечении, выполненном 11. апреля 2017, 11:26
Kool & The Gang / Something Special
Дисковод: PLEXTOR BDDVDRPX-B330SA Adapter: 0 ID: 1
Режим чтения : Достоверность
Использование точного потока : Да
Отключение кэша аудио : Да
Использование указателей C2 : Нет
Коррекция смещения при чтении : 702
Способность читать области Lead-in и Lead-out : Нет
Заполнение пропущенных сэмплов тишиной : Да
Удаление блоков с тишиной в начале и конце : Нет
При вычислениях CRC использовались нулевые сэмплы : Да
Интерфейс : Встроенный Win32-интерфейс для Win NT/2000
Обработка зазоров : Добавлено к предыдущему треку
Выходной формат : Пользовательский кодировщик
Выбранный битрейт : 128 kBit/s
Качество : Высокий
Добавление ID3-тега : Нет
Утилита сжатия : C:\Program Files\Exact Audio Copy\FLAC\FLAC.EXE
Дополнительные параметры : -6 -V -T "ARTIST=%artist%" -T "TITLE=%title%" -T "ALBUM=%albumtitle%" -T "DATE=%year%" -T "TRACKNUMBER=%tracknr%" -T "GENRE=%genre%" -T "COMMENT=%comment%" -T "BAND=%albuminterpret%" -T "COMPOSER=%composer%" %haslyrics%--tag-from-
TOC извлечённого CD
Трек | Старт | Длительность | Начальный сектор | Конечный сектор
---------------------------------------------------------------------
1 | 0:00.34 | 4:46.18 | 34 | 21501
2 | 4:46.52 | 5:00.04 | 21502 | 44005
3 | 9:46.56 | 4:06.30 | 44006 | 62485
4 | 13:53.11 | 4:15.45 | 62486 | 81655
5 | 18:08.56 | 4:53.50 | 81656 | 103680
6 | 23:02.31 | 4:33.52 | 103681 | 124207
7 | 27:36.08 | 4:29.58 | 124208 | 144440
8 | 32:05.66 | 4:20.37 | 144441 | 163977
Трек 1
Имя файла D:\FLAC\01 Steppin' out.wav
Длина предзазора 0:00:02.34
Пиковый уровень 100.0 %
Скорость извлечения 5.1 X
Качество трека 100.0 %
CRC теста 2CE9F2A3
CRC копии 2CE9F2A3
Точное извлечение (достоверность 3) [4DDAC0A2] (AR v2)
Копирование... OK
Трек 2
Имя файла D:\FLAC\02 Good time tonight.wav
Длина предзазора 0:00:01.10
Пиковый уровень 100.0 %
Скорость извлечения 5.6 X
Качество трека 100.0 %
CRC теста 4E7057BD
CRC копии 4E7057BD
Точное извлечение (достоверность 3) [B8558A48] (AR v2)
Копирование... OK
Трек 3
Имя файла D:\FLAC\03 Take my heart.wav
Длина предзазора 0:00:00.60
Пиковый уровень 100.0 %
Скорость извлечения 6.1 X
Качество трека 100.0 %
CRC теста 2259FE62
CRC копии 2259FE62
Точное извлечение (достоверность 3) [BE24432E] (AR v2)
Копирование... OK
Трек 4
Имя файла D:\FLAC\04 Be my lady.wav
Длина предзазора 0:00:02.36
Пиковый уровень 100.0 %
Скорость извлечения 6.0 X
Качество трека 99.9 %
CRC теста 0DF79058
CRC копии 0DF79058
Точное извлечение (достоверность 3) [996CCE4C] (AR v2)
Копирование... OK
Трек 5
Имя файла D:\FLAC\05 Get down on it.wav
Длина предзазора 0:00:02.11
Пиковый уровень 100.0 %
Скорость извлечения 7.1 X
Качество трека 100.0 %
CRC теста AF361596
CRC копии AF361596
Точное извлечение (достоверность 3) [DCC5EFA7] (AR v2)
Копирование... OK
Трек 6
Имя файла D:\FLAC\06 Pass it on.wav
Длина предзазора 0:00:02.29
Пиковый уровень 100.0 %
Скорость извлечения 7.5 X
Качество трека 100.0 %
CRC теста FCAF93F2
CRC копии FCAF93F2
Точное извлечение (достоверность 3) [3B1684C6] (AR v2)
Копирование... OK
Трек 7
Имя файла D:\FLAC\07 Stand up and sing.wav
Длина предзазора 0:00:02.25
Пиковый уровень 100.0 %
Скорость извлечения 7.7 X
Качество трека 100.0 %
CRC теста 69DE965C
CRC копии 69DE965C
Точное извлечение (достоверность 3) [BE87D915] (AR v2)
Копирование... OK
Трек 8
Имя файла D:\FLAC\08 No show.wav
Длина предзазора 0:00:02.05
Пиковый уровень 100.0 %
Скорость извлечения 6.7 X
Качество трека 100.0 %
CRC теста A81D6D88
CRC копии A81D6D88
Точное извлечение (достоверность 3) [A33924FB] (AR v2)
Копирование... OK
Все треки извлечены точно
Ошибок не произошло
Конец отчёта
---- CUETools DB Plugin V2.1.4
[CTDB TOCID: nLk6t6a2HyoSN7LoZUVCL3nxf_E-] found
Submit result: nLk6t6a2HyoSN7LoZUVCL3nxf_E- has been confirmed
Track | CTDB Status
1 | (6/6) Accurately ripped
2 | (6/6) Accurately ripped
3 | (6/6) Accurately ripped
4 | (6/6) Accurately ripped
5 | (6/6) Accurately ripped
6 | (6/6) Accurately ripped
7 | (6/6) Accurately ripped
8 | (6/6) Accurately ripped
==== Контрольная сумма отчёта 924C9017CCD549BB329846B54CE13751ADBED480782BB5E1F5EA48EDA7E41F97 ====
 
Содержание индексной карты (.CUE)
REM GENRE Disco
REM DATE 2012
REM DISCID 7A088A08
REM COMMENT "ExactAudioCopy v1.0b2"
CATALOG 0044006369525
PERFORMER "Kool & The Gang"
TITLE "Something Special"
FILE "01 Steppin' out.wav" WAVE
TRACK 01 AUDIO
TITLE "Steppin' out"
PERFORMER "Kool & The Gang"
ISRC USPR38100052
PREGAP 00:00:34
INDEX 01 00:00:00
TRACK 02 AUDIO
TITLE "Good time tonight"
PERFORMER "Kool & The Gang"
ISRC USMR18187019
INDEX 00 04:45:08
FILE "02 Good time tonight.wav" WAVE
INDEX 01 00:00:00
TRACK 03 AUDIO
TITLE "Take my heart"
PERFORMER "Kool & The Gang"
ISRC USPR38107166
INDEX 00 04:59:19
FILE "03 Take my heart.wav" WAVE
INDEX 01 00:00:00
TRACK 04 AUDIO
TITLE "Be my lady"
PERFORMER "Kool & The Gang"
ISRC USMR18187020
INDEX 00 04:03:69
FILE "04 Be my lady.wav" WAVE
INDEX 01 00:00:00
TRACK 05 AUDIO
TITLE "Get down on it"
PERFORMER "Kool & The Gang"
ISRC USPR38100044
INDEX 00 04:13:34
FILE "05 Get down on it.wav" WAVE
INDEX 01 00:00:00
TRACK 06 AUDIO
TITLE "Pass it on"
PERFORMER "Kool & The Gang"
ISRC USMR18187022
INDEX 00 04:51:21
FILE "06 Pass it on.wav" WAVE
INDEX 01 00:00:00
TRACK 07 AUDIO
TITLE "Stand up and sing"
PERFORMER "Kool & The Gang"
ISRC USMR18187023
INDEX 00 04:31:27
FILE "07 Stand up and sing.wav" WAVE
INDEX 01 00:00:00
TRACK 08 AUDIO
TITLE "No show"
PERFORMER "Kool & The Gang"
ISRC USPR38100057
INDEX 00 04:27:53
FILE "08 No show.wav" WAVE
INDEX 01 00:00:00
Приватный:
Нет (DHT включён)
Размер:
259.47 Мб (272,071,414 байт) » файлов: 29
Участники:
0 раздают, 0 качают (0 участников всего)
Внешние участники:
1 раздают, 0 качают (1 участников всего) [ Обновить ]
Есть вопросы - пишите личное сообщение пользователю M0p94ok.
13:32
82
Нет комментариев. Ваш будет первым!