Поиск

(Funk, Soul, Neo Pop) [CD] Animal Nightlife - Unleashed - The Best Of Animal Nightlife - 2000, FLAC (tracks+.cue), lossless

(Funk, Soul, Neo Pop) [CD] Animal Nightlife - Unleashed - The Best Of Animal Nightlife - 2000, FLAC (tracks+.cue), lossless
Треклист:
Animal Nightlife / Unleashed - The Best Of Animal Nightlife
Жанр: Funk, Soul, Neo Pop
Носитель: CD
Страна-производитель диска (релиза): UK
Год издания: 2000
Издатель (лейбл): Music Club
Номер по каталогу: MCCD 436
Аудиокодек: FLAC (*.flac)
Тип рипа: tracks+.cue
Битрейт аудио: lossless
Продолжительность: 75:06
Источник (релизер): обмен
Наличие сканов в содержимом раздачи: да
Треклист:
01. Animal Nightlife - Mr. Solitaire [3:55]
02. Animal Nightlife - Preacher, Preacher [4:10]
03. Animal Nightlife - Love Is Just The Great Pretender '85 [3:57]
04. Animal Nightlife - After Hours [4:43]
05. Animal Nightlife - Between Lovers [5:18]
06. Animal Nightlife - Native Boy [5:11]
07. Animal Nightlife - Lazy Afternoon [3:23]
08. Animal Nightlife - I Was Yours But It's All Over Now (Throw In The Towel) [4:13]
09. Animal Nightlife - Basic Ingredients [3:43]
10. Animal Nightlife - Waiting For The Bait To Bite [4:05]
11. Animal Nightlife - Perfect Match [4:16]
12. Animal Nightlife - Insomniazz [4:00]
13. Animal Nightlife - Who's Fooling Who [4:36]
14. Animal Nightlife - Bittersweet [4:40]
15. Animal Nightlife - You've Lost Me [4:35]
16. Animal Nightlife - Girl At Large [4:20]
17. Animal Nightlife - Mr. Solitaire (US Remix) [5:59]
 
Лог создания рипа
Exact Audio Copy V1.0 beta 3 from 29. August 2011
EAC extraction logfile from 31. May 2014, 19:39
Animal Nightlife / Unleashed - The Best Of
Used drive : ASUS DRW-20B1LT Adapter: 2 ID: 0
Read mode : Secure
Utilize accurate stream : Yes
Defeat audio cache : Yes
Make use of C2 pointers : No
Read offset correction : 6
Overread into Lead-In and Lead-Out : No
Fill up missing offset samples with silence : Yes
Delete leading and trailing silent blocks : No
Null samples used in CRC calculations : Yes
Used interface : Native Win32 interface for Win NT & 2000
Gap handling : Appended to previous track
Used output format : User Defined Encoder
Selected bitrate : 320 kBit/s
Quality : High
Add ID3 tag : No
Command line compressor : C:\Program Files\FLAC\flac.exe
Additional command line options : -8 -V -T "ARTIST=%artist%" -T "TITLE=%title%" -T "ALBUM=%albumtitle%" -T "DATE=%year%" -T "TRACKNUMBER=%tracknr%" -T "GENRE=%genre%" -T "COMMENT=EAC FLAC -8" %source%
TOC of the extracted CD
Track | Start | Length | Start sector | End sector
---------------------------------------------------------
1 | 0:00.00 | 3:54.72 | 0 | 17621
2 | 3:54.72 | 4:10.30 | 17622 | 36401
3 | 8:05.27 | 3:57.35 | 36402 | 54211
4 | 12:02.62 | 4:42.70 | 54212 | 75431
5 | 16:45.57 | 5:18.35 | 75432 | 99316
6 | 22:04.17 | 5:11.35 | 99317 | 122676
7 | 27:15.52 | 3:23.33 | 122677 | 137934
8 | 30:39.10 | 4:12.67 | 137935 | 156901
9 | 34:52.02 | 3:43.23 | 156902 | 173649
10 | 38:35.25 | 4:05.12 | 173650 | 192036
11 | 42:40.37 | 4:15.60 | 192037 | 211221
12 | 46:56.22 | 3:59.53 | 211222 | 229199
13 | 50:56.00 | 4:35.45 | 229200 | 249869
14 | 55:31.45 | 4:40.25 | 249870 | 270894
15 | 60:11.70 | 4:34.62 | 270895 | 291506
16 | 64:46.57 | 4:20.05 | 291507 | 311011
17 | 69:06.62 | 5:59.30 | 311012 | 337966
Track 1
Filename K:\EACrips\Animal Nightlife - Unleashed - The Best Of\01 - Mr. Solitaire.wav
Pre-gap length 0:00:02.00
Peak level 94.3 %
Extraction speed 3.7 X
Track quality 100.0 %
Test CRC 067FE819
Copy CRC 067FE819
Accurately ripped (confidence 3) [9F10D47F] (AR v1)
Copy OK
Track 2
Filename K:\EACrips\Animal Nightlife - Unleashed - The Best Of\02 - Preacher, Preacher.wav
Peak level 100.0 %
Extraction speed 4.2 X
Track quality 100.0 %
Test CRC E0BCB230
Copy CRC E0BCB230
Accurately ripped (confidence 3) [A33737AA] (AR v1)
Copy OK
Track 3
Filename K:\EACrips\Animal Nightlife - Unleashed - The Best Of\03 - Love Is Just The Great Pretender '85.wav
Peak level 97.2 %
Extraction speed 4.5 X
Track quality 100.0 %
Test CRC D3D9E89D
Copy CRC D3D9E89D
Accurately ripped (confidence 3) [59A76608] (AR v1)
Copy OK
Track 4
Filename K:\EACrips\Animal Nightlife - Unleashed - The Best Of\04 - After Hours.wav
Peak level 99.7 %
Extraction speed 4.9 X
Track quality 100.0 %
Test CRC 9D7C4506
Copy CRC 9D7C4506
Accurately ripped (confidence 3) [C7DA4A2A] (AR v1)
Copy OK
Track 5
Filename K:\EACrips\Animal Nightlife - Unleashed - The Best Of\05 - Between Lovers.wav
Peak level 98.5 %
Extraction speed 5.4 X
Track quality 100.0 %
Test CRC 26D18122
Copy CRC 26D18122
Accurately ripped (confidence 3) [52E9EF0F] (AR v1)
Copy OK
Track 6
Filename K:\EACrips\Animal Nightlife - Unleashed - The Best Of\06 - Native Boy.wav
Peak level 96.6 %
Extraction speed 5.7 X
Track quality 100.0 %
Test CRC 2D020AC5
Copy CRC 2D020AC5
Accurately ripped (confidence 3) [6F5A7884] (AR v1)
Copy OK
Track 7
Filename K:\EACrips\Animal Nightlife - Unleashed - The Best Of\07 - Lazy Afternoon.wav
Peak level 99.9 %
Extraction speed 5.7 X
Track quality 100.0 %
Test CRC 6A21B653
Copy CRC 6A21B653
Accurately ripped (confidence 3) [470AB848] (AR v1)
Copy OK
Track 8
Filename K:\EACrips\Animal Nightlife - Unleashed - The Best Of\08 - I Was Yours But It's All Over Now (Throw In The Towel).wav
Peak level 99.7 %
Extraction speed 6.0 X
Track quality 100.0 %
Test CRC 6B13B3D6
Copy CRC 6B13B3D6
Accurately ripped (confidence 3) [0FB1B08C] (AR v1)
Copy OK
Track 9
Filename K:\EACrips\Animal Nightlife - Unleashed - The Best Of\09 - Basic Ingredients.wav
Peak level 99.9 %
Extraction speed 6.2 X
Track quality 100.0 %
Test CRC B99906E6
Copy CRC B99906E6
Accurately ripped (confidence 3) [15D1931F] (AR v1)
Copy OK
Track 10
Filename K:\EACrips\Animal Nightlife - Unleashed - The Best Of\10 - Waiting For The Bait To Bite.wav
Peak level 97.0 %
Extraction speed 6.5 X
Track quality 100.0 %
Test CRC 6A50AD90
Copy CRC 6A50AD90
Accurately ripped (confidence 3) [9DC4DCB8] (AR v1)
Copy OK
Track 11
Filename K:\EACrips\Animal Nightlife - Unleashed - The Best Of\11 - Perfect Match.wav
Peak level 97.7 %
Extraction speed 6.7 X
Track quality 100.0 %
Test CRC F0C9CEE3
Copy CRC F0C9CEE3
Accurately ripped (confidence 3) [4A6B5E56] (AR v1)
Copy OK
Track 12
Filename K:\EACrips\Animal Nightlife - Unleashed - The Best Of\12 - Insomniazz.wav
Peak level 99.5 %
Extraction speed 5.5 X
Track quality 99.9 %
Test CRC B48D9054
Copy CRC B48D9054
Accurately ripped (confidence 3) [3371CE12] (AR v1)
Copy OK
Track 13
Filename K:\EACrips\Animal Nightlife - Unleashed - The Best Of\13 - Who's Fooling Who.wav
Peak level 98.4 %
Extraction speed 7.2 X
Track quality 100.0 %
Test CRC 8CCC6A76
Copy CRC 8CCC6A76
Accurately ripped (confidence 3) [76E438A6] (AR v1)
Copy OK
Track 14
Filename K:\EACrips\Animal Nightlife - Unleashed - The Best Of\14 - Bittersweet.wav
Peak level 98.5 %
Extraction speed 7.4 X
Track quality 100.0 %
Test CRC 8DD47938
Copy CRC 8DD47938
Accurately ripped (confidence 3) [984CFDC0] (AR v1)
Copy OK
Track 15
Filename K:\EACrips\Animal Nightlife - Unleashed - The Best Of\15 - You've Lost Me.wav
Peak level 96.1 %
Extraction speed 7.6 X
Track quality 100.0 %
Test CRC 9FB23F9A
Copy CRC 9FB23F9A
Accurately ripped (confidence 3) [19614189] (AR v1)
Copy OK
Track 16
Filename K:\EACrips\Animal Nightlife - Unleashed - The Best Of\16 - Girl At Large.wav
Peak level 99.9 %
Extraction speed 7.7 X
Track quality 100.0 %
Test CRC D1A10424
Copy CRC D1A10424
Accurately ripped (confidence 3) [F3CC24E6] (AR v1)
Copy OK
Track 17
Filename K:\EACrips\Animal Nightlife - Unleashed - The Best Of\17 - Mr. Solitaire (US Remix).wav
Peak level 99.7 %
Extraction speed 8.2 X
Track quality 100.0 %
Test CRC 10BFDAFD
Copy CRC 10BFDAFD
Accurately ripped (confidence 3) [9DF079EF] (AR v1)
Copy OK
All tracks accurately ripped
No errors occurred
End of status report
==== Log checksum 8E3E67EBEEA5413221361CA787AB0C91768D725A62D146A0A60C563ACA239D44 ====
 
Содержание индексной карты (.CUE)
REM GENRE Pop
REM DATE 2000
REM DISCID F3119A11
REM COMMENT "ExactAudioCopy v1.0b3"
PERFORMER "Animal Nightlife"
TITLE "Unleashed - The Best Of"
FILE "01 - Mr. Solitaire.wav" WAVE
TRACK 01 AUDIO
TITLE "Mr. Solitaire"
PERFORMER "Animal Nightlife"
INDEX 01 00:00:00
FILE "02 - Preacher, Preacher.wav" WAVE
TRACK 02 AUDIO
TITLE "Preacher, Preacher"
PERFORMER "Animal Nightlife"
INDEX 01 00:00:00
FILE "03 - Love Is Just The Great Pretender '85.wav" WAVE
TRACK 03 AUDIO
TITLE "Love Is Just The Great Pretender '85"
PERFORMER "Animal Nightlife"
INDEX 01 00:00:00
FILE "04 - After Hours.wav" WAVE
TRACK 04 AUDIO
TITLE "After Hours"
PERFORMER "Animal Nightlife"
INDEX 01 00:00:00
FILE "05 - Between Lovers.wav" WAVE
TRACK 05 AUDIO
TITLE "Between Lovers"
PERFORMER "Animal Nightlife"
INDEX 01 00:00:00
FILE "06 - Native Boy.wav" WAVE
TRACK 06 AUDIO
TITLE "Native Boy"
PERFORMER "Animal Nightlife"
INDEX 01 00:00:00
FILE "07 - Lazy Afternoon.wav" WAVE
TRACK 07 AUDIO
TITLE "Lazy Afternoon"
PERFORMER "Animal Nightlife"
INDEX 01 00:00:00
FILE "08 - I Was Yours But It's All Over Now (Throw In The Towel).wav" WAVE
TRACK 08 AUDIO
TITLE "I Was Yours But It's All Over Now (Throw In The Towel)"
PERFORMER "Animal Nightlife"
INDEX 01 00:00:00
FILE "09 - Basic Ingredients.wav" WAVE
TRACK 09 AUDIO
TITLE "Basic Ingredients"
PERFORMER "Animal Nightlife"
INDEX 01 00:00:00
FILE "10 - Waiting For The Bait To Bite.wav" WAVE
TRACK 10 AUDIO
TITLE "Waiting For The Bait To Bite"
PERFORMER "Animal Nightlife"
INDEX 01 00:00:00
FILE "11 - Perfect Match.wav" WAVE
TRACK 11 AUDIO
TITLE "Perfect Match"
PERFORMER "Animal Nightlife"
INDEX 01 00:00:00
FILE "12 - Insomniazz.wav" WAVE
TRACK 12 AUDIO
TITLE "Insomniazz"
PERFORMER "Animal Nightlife"
INDEX 01 00:00:00
FILE "13 - Who's Fooling Who.wav" WAVE
TRACK 13 AUDIO
TITLE "Who's Fooling Who"
PERFORMER "Animal Nightlife"
INDEX 01 00:00:00
FILE "14 - Bittersweet.wav" WAVE
TRACK 14 AUDIO
TITLE "Bittersweet"
PERFORMER "Animal Nightlife"
INDEX 01 00:00:00
FILE "15 - You've Lost Me.wav" WAVE
TRACK 15 AUDIO
TITLE "You've Lost Me"
PERFORMER "Animal Nightlife"
INDEX 01 00:00:00
FILE "16 - Girl At Large.wav" WAVE
TRACK 16 AUDIO
TITLE "Girl At Large"
PERFORMER "Animal Nightlife"
INDEX 01 00:00:00
FILE "17 - Mr. Solitaire (US Remix).wav" WAVE
TRACK 17 AUDIO
TITLE "Mr. Solitaire (US Remix)"
PERFORMER "Animal Nightlife"
INDEX 01 00:00:00
Приватный:
Нет (DHT включён)
Размер:
549.53 Мб (576,227,140 байт) » файлов: 27
Участники:
0 раздают, 0 качают (0 участников всего)
Внешние участники:
7 раздают, 2 качают (9 участников всего) [ Обновить ]
Есть вопросы - пишите личное сообщение пользователю M0p94ok.
15:22
82
Нет комментариев. Ваш будет первым!