Поиск

(Funk, Soul) [WEB] Stefan Dettl - Soultrain - 2016, FLAC (tracks), lossless

(Funk, Soul) [WEB] Stefan Dettl - Soultrain - 2016, FLAC (tracks), lossless
Треклист:
Stefan Dettl / Soultrain
Жанр: Funk, Soul
Носитель: WEB
Год издания: 2016
Издатель (лейбл): RCA Deutschland
Страна исполнителя (группы): Germany
Аудиокодек: FLAC (*.flac)
Тип рипа: tracks
Битрейт аудио: lossless
Продолжительность: 00:52:09
Источник (релизер): 7digital
Наличие сканов в содержимом раздачи: Front
Треклист:
01. Superman (4:36)
02. Drahn (3:26)
03. Neu2 (7:13)
04. Bleame (3:51)
05. Des bassd ned (3:46)
06. Tanzbär (4:07)
07. Rockstar (3:48)
08. I Don't Need Your Love (2:53)
09. Khao Phad Gai (1:08)
10. Bester Freind (6:22)
11. Trachtenbua (5:53)
12. Soultrain (5:06)
 
DR Log
foobar2000 1.1.10 / Dynamic Range Meter 1.1.1
log date: 2018-01-18 16:32:56
--------------------------------------------------------------------------------
Analyzed: Stefan Dettl / RCA Deutschland
--------------------------------------------------------------------------------
DR Peak RMS Duration Track
--------------------------------------------------------------------------------
DR11 -0.58 dB -14.03 dB 4:36 ?-Superman (Live Konzert-Stereobandmitschnitt)
DR11 -0.59 dB -13.05 dB 3:26 ?-Drahn (Live Konzert-Stereobandmitschnitt)
DR12 -0.60 dB -13.58 dB 7:13 ?-Neu2 (Live Konzert-Stereobandmitschnitt)
DR10 -0.51 dB -13.09 dB 3:51 ?-Bleame (Live Konzert-Stereobandmitschnitt)
DR12 -0.62 dB -13.56 dB 3:46 ?-Des bassd ned (Live Konzert-Stereobandmitschnitt)
DR10 -0.57 dB -12.53 dB 4:07 ?-Tanzbär (Live Konzert-Stereobandmitschnitt)
DR10 -0.67 dB -11.63 dB 3:48 ?-Rockstar (Live Konzert-Stereobandmitschnitt)
DR12 -0.70 dB -15.17 dB 2:53 ?-I Don't Need Your Love (Live Konzert-Stereobandmitschnitt)
DR12 -0.73 dB -17.12 dB 1:08 ?-Khao Phad Gai (Live Konzert-Stereobandmitschnitt)
DR11 -0.60 dB -13.33 dB 6:22 ?-Bester Freind (Live Konzert-Stereobandmitschnitt)
DR10 -0.69 dB -11.81 dB 5:53 ?-Trachtenbua (Live Konzert-Stereobandmitschnitt)
DR11 -0.53 dB -13.27 dB 5:06 ?-Soultrain (Live Konzert-Stereobandmitschnitt)
--------------------------------------------------------------------------------
Number of tracks: 12
Official DR value: DR11
Samplerate: 44100 Hz
Channels: 2
Bits per sample: 16
Bitrate: 974 kbps
Codec: FLAC
================================================================================
 
Лог проверки качества
-----------------------
DON'T MODIFY THIS FILE
-----------------------
PERFORMER: auCDtect Task Manager, ver. 1.5.1RC4 build 1.5.1.5
Copyright (c) 2008-2010 y-soft. All rights reserved
http://y-soft.org
ANALYZER: auCDtect: CD records authenticity detector, version 0.8.2
Copyright (c) 2004 Oleg Berngardt. All rights reserved.
Copyright (c) 2004 Alexander Djourik. All rights reserved.
FILE: 12. Soultrain.flac
Size: 37551849 Hash: B8019B7F10ACB4C09539751C48FAE7E4 Accuracy: -m0
Conclusion: CDDA 100%
Signature: F9DD762CD6CDC1DB45C2631A528FDDB10DF529DC
FILE: 11. Trachtenbua.flac
Size: 42677735 Hash: CC7D530D30BEFA7A6DE4008D0D555D04 Accuracy: -m0
Conclusion: CDDA 100%
Signature: 31AD126E16A31D01432EC8B1D1E262AB015D65E2
FILE: 10. Bester Freind.flac
Size: 43475472 Hash: AAE3BFFB7608CCA3DF5C980E7B2A8FD1 Accuracy: -m0
Conclusion: CDDA 100%
Signature: 1870C66B102C4887A716B5068960C0B71D3B11AC
FILE: 09. Khao Phad Gai.flac
Size: 7722286 Hash: E4E99299FC207DC9628FF8CB873FF8C6 Accuracy: -m0
Conclusion: CDDA 100%
Signature: C118239EA59A9FC442D95F6FFAB36E7650D2901C
FILE: 08. I Don't Need Your Love.flac
Size: 19110524 Hash: FFEF4A1CA4FE9524FBA896E5B1BA5DFD Accuracy: -m0
Conclusion: CDDA 100%
Signature: 4E1158171E147FF986963FBC02B6197862987000
FILE: 07. Rockstar.flac
Size: 28779155 Hash: 601CDAE84CDC4371AFCACC3E96EF65AD Accuracy: -m0
Conclusion: CDDA 100%
Signature: BB80A681E7A9EA87A62425BD395D5DE0B562F316
FILE: 06. Tanzbär.flac
Size: 29502126 Hash: DCE3F2E2A969BDBF03C8A9B6A63BBAF7 Accuracy: -m0
Conclusion: CDDA 100%
Signature: 0101E58AD78A2C27944BC7F85127BC8263F8724C
FILE: 05. Des bassd ned.flac
Size: 28346236 Hash: 0D9F5136940DCD3E5A9486B315B13896 Accuracy: -m0
Conclusion: CDDA 100%
Signature: FF9DB2BD7E3DDB3989CA1FC06C02CD8D8563F983
FILE: 04. Bleame.flac
Size: 26620714 Hash: A6ED95F33542413CB9A326124FFC2FEC Accuracy: -m0
Conclusion: CDDA 100%
Signature: BBFFF7C31A39C06C30AC7F4FE276E38F8CD40B1F
FILE: 03. Neu2.flac
Size: 51224047 Hash: 40E7C0E6209960287F550BC9D3BD1694 Accuracy: -m0
Conclusion: CDDA 99%
Signature: 75823851A45583C71D13816C55889ACD9B6618BF
FILE: 02. Drahn.flac
Size: 24692921 Hash: A3BD38AC557DAEC93A960C01CA60971C Accuracy: -m0
Conclusion: CDDA 99%
Signature: 19BEE80EA9AE4ED94AEE01897EF08802D98E3DCD
FILE: 01. Superman.flac
Size: 31284658 Hash: 50C8A46B8D8103A7A35F98D2B9B24514 Accuracy: -m0
Conclusion: CDDA 99%
Signature: 0094DE90CFDC4702586FEF7B4967951DB03B990A
 
Об исполнителе (группе)
 
Состав
Bass – Ludwig Klöckner
Drums – Chris Stöger
Guitar – Philipp Frankenberger
Piano, Organ – Tom Jahn
Tuba – Stefan Huber
Vocals, Brass, Piano – Stefan Dettl
Приватный:
Нет (DHT включён)
Размер:
354.05 Мб (371,252,784 байт) » файлов: 15
Участники:
0 раздают, 0 качают (0 участников всего)
Внешние участники:
1 раздают, 0 качают (1 участников всего) [ Обновить ]
Есть вопросы - пишите личное сообщение пользователю M0p94ok.
15:22
75
Нет комментариев. Ваш будет первым!