Поиск

(Funk, Soul, R&B) [CD] Phyllis Hyman - Prime Of My Life - 1991, FLAC (tracks+.cue), lossless

(Funk, Soul, R&B) [CD] Phyllis Hyman - Prime Of My Life - 1991, FLAC (tracks+.cue), lossless
Треклист:
Phyllis Hyman / Prime Of My Life
Жанр: Funk, Soul, R&B
Носитель: CD
Страна-производитель диска (релиза): USA
Год издания: 1991
Издатель (лейбл): Zoo Entertainment
Номер по каталогу: 72445-11006-2
Аудиокодек: FLAC (*.flac)
Тип рипа: tracks+.cue
Битрейт аудио: lossless
Продолжительность: 00:00:53:30
Источник (релизер): Unknow
Наличие сканов в содержимом раздачи: нет
Треклист:
1. When You Get Right Down To It (04:20)
2. I Found Love (04:25)
3. Don't Wanna Change The World (05:22)
4. Prime Of My Life (05:11)
5. When I Give My Love (This Time) (07:03)
6. I Can't Take It Anymore (04:21)
7. Walk Away (04:24)
8. Living In Confusion (07:05)
9. Meet Me On The Moon (06:43)
10. What Ever Happened To Our Love (04:06)
 
Лог создания рипа
Exact Audio Copy V0.99 prebeta 4 from 23. January 2008
EAC extraction logfile from 22. May 2010, 13:13
Phyllis Hyman / Prime Of My Life
Used drive : TSSTcorpCD/DVDW SH-S182D Adapter: 3 ID: 0
Read mode : Secure
Utilize accurate stream : Yes
Defeat audio cache : Yes
Make use of C2 pointers : No
Read offset correction : 6
Overread into Lead-In and Lead-Out : No
Fill up missing offset samples with silence : Yes
Delete leading and trailing silent blocks : No
Null samples used in CRC calculations : Yes
Used interface : Native Win32 interface for Win NT & 2000
Gap handling : Appended to previous track
Used output format : User Defined Encoder
Selected bitrate : 320 kBit/s
Quality : High
Add ID3 tag : No
Command line compressor : C:\Arquivos de programas\Exact Audio Copy\Flac\flac.exe
Additional command line options : -V -8 -T "artist=%a" -T "title=%t" -T "album=%g" -T "date=%y" -T "tracknumber=%n" -T "genre=%m" %s
TOC of the extracted CD
Track | Start | Length | Start sector | End sector
---------------------------------------------------------
1 | 0:00.00 | 4:23.18 | 0 | 19742
2 | 4:23.18 | 4:28.55 | 19743 | 39897
3 | 8:51.73 | 5:24.10 | 39898 | 64207
4 | 14:16.08 | 5:14.25 | 64208 | 87782
5 | 19:30.33 | 7:07.02 | 87783 | 119809
6 | 26:37.35 | 4:23.50 | 119810 | 139584
7 | 31:01.10 | 4:27.38 | 139585 | 159647
8 | 35:28.48 | 7:08.52 | 159648 | 191799
9 | 42:37.25 | 6:46.20 | 191800 | 222269
10 | 49:23.45 | 4:06.68 | 222270 | 240787
Track 1
Filename L:\Recording\Phyllis Hyman (1991) Prime Of My Life\01 - When You Get Right Down To It.wav
Pre-gap length 0:00:02.00
Peak level 93.7 %
Track quality 100.0 %
Test CRC 1D550676
Copy CRC 1D550676
Accurately ripped (confidence 5) [CEE5D6A8]
Copy OK
Track 2
Filename L:\Recording\Phyllis Hyman (1991) Prime Of My Life\02 - I Found Love.wav
Pre-gap length 0:00:01.93
Peak level 89.6 %
Track quality 100.0 %
Test CRC 1AC44096
Copy CRC 1AC44096
Accurately ripped (confidence 5) [985B6BD6]
Copy OK
Track 3
Filename L:\Recording\Phyllis Hyman (1991) Prime Of My Life\03 - Don't Wanna Change The World.wav
Pre-gap length 0:00:02.70
Peak level 77.2 %
Track quality 100.0 %
Test CRC F99C9170
Copy CRC F99C9170
Accurately ripped (confidence 5) [326A2C1A]
Copy OK
Track 4
Filename L:\Recording\Phyllis Hyman (1991) Prime Of My Life\04 - Prime Of My Life.wav
Pre-gap length 0:00:02.33
Peak level 83.2 %
Track quality 100.0 %
Test CRC CB351576
Copy CRC CB351576
Accurately ripped (confidence 5) [1934984F]
Copy OK
Track 5
Filename L:\Recording\Phyllis Hyman (1991) Prime Of My Life\05 - When I Give My Love (This Time).wav
Pre-gap length 0:00:02.37
Peak level 94.1 %
Track quality 99.9 %
Test CRC A5AB7141
Copy CRC A5AB7141
Accurately ripped (confidence 5) [53A25224]
Copy OK
Track 6
Filename L:\Recording\Phyllis Hyman (1991) Prime Of My Life\06 - I Can't Take It Anymore.wav
Pre-gap length 0:00:03.16
Peak level 77.4 %
Track quality 99.9 %
Test CRC 6F30FF64
Copy CRC 6F30FF64
Accurately ripped (confidence 5) [CB43B956]
Copy OK
Track 7
Filename L:\Recording\Phyllis Hyman (1991) Prime Of My Life\07 - Walk Away.wav
Pre-gap length 0:00:01.93
Peak level 91.2 %
Track quality 100.0 %
Test CRC CA89DB9C
Copy CRC CA89DB9C
Accurately ripped (confidence 5) [EBAA6AC4]
Copy OK
Track 8
Filename L:\Recording\Phyllis Hyman (1991) Prime Of My Life\08 - Living In Confusion.wav
Pre-gap length 0:00:02.30
Peak level 81.0 %
Track quality 99.9 %
Test CRC 1BAFB786
Copy CRC 1BAFB786
Accurately ripped (confidence 5) [5F8C520A]
Copy OK
Track 9
Filename L:\Recording\Phyllis Hyman (1991) Prime Of My Life\09 - Meet Me On The Moon.wav
Pre-gap length 0:00:02.02
Peak level 90.4 %
Track quality 100.0 %
Test CRC 9E3C5089
Copy CRC 9E3C5089
Accurately ripped (confidence 5) [2AA286BD]
Copy OK
Track 10
Filename L:\Recording\Phyllis Hyman (1991) Prime Of My Life\10 - What Ever Happened To Our Love.wav
Pre-gap length 0:00:01.05
Peak level 96.2 %
Track quality 100.0 %
Test CRC 33572460
Copy CRC 33572460
Accurately ripped (confidence 5) [8E2F1183]
Copy OK
All tracks accurately ripped
No errors occurred
End of status report
 
Содержание индексной карты (.CUE)
REM GENRE Soul
REM DATE 1991
REM DISCID 950C8A0A
REM COMMENT "ExactAudioCopy v0.99pb4"
PERFORMER "Phyllis Hyman"
TITLE "Prime Of My Life"
FILE "Phyllis Hyman (1991) Prime Of My Life\01 - When You Get Right Down To It.wav" WAVE
TRACK 01 AUDIO
TITLE "When You Get Right Down To It"
PERFORMER "Phyllis Hyman"
INDEX 01 00:00:00
TRACK 02 AUDIO
TITLE "I Found Love"
PERFORMER "Phyllis Hyman"
INDEX 00 04:21:23
FILE "Phyllis Hyman (1991) Prime Of My Life\02 - I Found Love.wav" WAVE
INDEX 01 00:00:00
TRACK 03 AUDIO
TITLE "Don't Wanna Change The World"
PERFORMER "Phyllis Hyman"
INDEX 00 04:26:02
FILE "Phyllis Hyman (1991) Prime Of My Life\03 - Don't Wanna Change The World.wav" WAVE
INDEX 01 00:00:00
TRACK 04 AUDIO
TITLE "Prime Of My Life"
PERFORMER "Phyllis Hyman"
INDEX 00 05:21:60
FILE "Phyllis Hyman (1991) Prime Of My Life\04 - Prime Of My Life.wav" WAVE
INDEX 01 00:00:00
TRACK 05 AUDIO
TITLE "When I Give My Love (This Time)"
PERFORMER "Phyllis Hyman"
INDEX 00 05:11:72
FILE "Phyllis Hyman (1991) Prime Of My Life\05 - When I Give My Love (This Time).wav" WAVE
INDEX 01 00:00:00
TRACK 06 AUDIO
TITLE "I Can't Take It Anymore"
PERFORMER "Phyllis Hyman"
INDEX 00 07:03:65
FILE "Phyllis Hyman (1991) Prime Of My Life\06 - I Can't Take It Anymore.wav" WAVE
INDEX 01 00:00:00
TRACK 07 AUDIO
TITLE "Walk Away"
PERFORMER "Phyllis Hyman"
INDEX 00 04:21:55
FILE "Phyllis Hyman (1991) Prime Of My Life\07 - Walk Away.wav" WAVE
INDEX 01 00:00:00
TRACK 08 AUDIO
TITLE "Living In Confusion"
PERFORMER "Phyllis Hyman"
INDEX 00 04:25:15
FILE "Phyllis Hyman (1991) Prime Of My Life\08 - Living In Confusion.wav" WAVE
INDEX 01 00:00:00
TRACK 09 AUDIO
TITLE "Meet Me On The Moon"
PERFORMER "Phyllis Hyman"
INDEX 00 07:06:50
FILE "Phyllis Hyman (1991) Prime Of My Life\09 - Meet Me On The Moon.wav" WAVE
INDEX 01 00:00:00
TRACK 10 AUDIO
TITLE "What Ever Happened To Our Love"
PERFORMER "Phyllis Hyman"
INDEX 00 06:45:16
FILE "Phyllis Hyman (1991) Prime Of My Life\10 - What Ever Happened To Our Love.wav" WAVE
INDEX 01 00:00:00
 
Лог проверки качества
-----------------------
DON'T MODIFY THIS FILE
-----------------------
PERFORMER: auCDtect Task Manager, ver. 1.6.0 RC1 build 1.6.0.1
Copyright (c) 2008-2010 y-soft. All rights reserved
http://y-soft.org
ANALYZER: auCDtect: CD records authenticity detector, version 0.8.2
Copyright (c) 2004 Oleg Berngardt. All rights reserved.
Copyright (c) 2004 Alexander Djourik. All rights reserved.
FILE: 10 - What Ever Happened To Our Love.flac
Size: 25254980 Hash: D92EA8C4AEC7352685B31F5FA26DA7C8 Accuracy: -m0
Conclusion: CDDA 100%
Signature: CFA5CB22BBA8921062DB186BF016473DA8F063CA
FILE: 09 - Meet Me On The Moon.flac
Size: 39752363 Hash: 62AF1D7A03F2D1720B7BA7985E45AD66 Accuracy: -m0
Conclusion: CDDA 100%
Signature: 14314ECE7C0210B047646E6855DCF8CDABE84833
FILE: 08 - Living In Confusion.flac
Size: 44307720 Hash: E0555B2E6C3952DF3F1ACB84E83BB742 Accuracy: -m0
Conclusion: CDDA 100%
Signature: 865A522A2C8F00F3F262C2686E7FA82DB5E8332A
FILE: 07 - Walk Away.flac
Size: 29140678 Hash: AA935D2BA1353A4D2535C0080C999128 Accuracy: -m0
Conclusion: CDDA 100%
Signature: FBCDD8E61F9004CE61A2B91293B5093CB7D1DBCF
FILE: 06 - I Can't Take It Anymore.flac
Size: 30255174 Hash: 23D5E8B95DC6EDA2030FDE1D7A31B635 Accuracy: -m0
Conclusion: CDDA 100%
Signature: B14EE65E8C2FD8F9747068DC93AC679CFEA68270
FILE: 05 - When I Give My Love (This Time).flac
Size: 44069630 Hash: 3C62EE9E2436F0297FFA6439DEF8260A Accuracy: -m0
Conclusion: CDDA 100%
Signature: 1C33DDE5C90A1CF43E2BB3D59AB7C56E67982B59
FILE: 04 - Prime Of My Life.flac
Size: 33991171 Hash: 21D2B1130712A6ED807C93DD3CA4F4F7 Accuracy: -m0
Conclusion: CDDA 100%
Signature: 33C622216DF82F1D8F05A58E68022BAAAD948BEB
FILE: 03 - Don't Wanna Change The World.flac
Size: 35351157 Hash: 36637B9CC1A525FD00839D50865FD2A6 Accuracy: -m0
Conclusion: CDDA 100%
Signature: BE394357E193641F71DBA53136603C3581AEA8DC
FILE: 02 - I Found Love.flac
Size: 28376980 Hash: D548CB06FC5806503BE9F600B24882AB Accuracy: -m0
Conclusion: CDDA 100%
Signature: 46AB82503A06094E9CD4C72FDE6C7560B954B404
FILE: 01 - When You Get Right Down To It.flac
Size: 30157876 Hash: A6623A3300011601C89E77D493D9C440 Accuracy: -m0
Conclusion: CDDA 100%
Signature: 09E2E6BCFF813E4ADED23EF2FF8BE4515E2124AE
Благодарю Senor Peligro за помощь в нахождении альбома.
Приватный:
Нет (DHT включён)
Размер:
325.04 Мб (340,826,913 байт) » файлов: 16
Участники:
0 раздают, 0 качают (0 участников всего)
Внешние участники:
3 раздают, 1 качают (4 участников всего) [ Обновить ]
Есть вопросы - пишите личное сообщение пользователю M0p94ok.
15:23
69
Нет комментариев. Ваш будет первым!