Поиск

(Funk, Soul, Disco) [CD] Atlantic Starr - Yours Forever - 1983 (1995 Japan Edition), FLAC (tracks+.cue), lossless

(Funk, Soul, Disco) [CD] Atlantic Starr - Yours Forever - 1983 (1995 Japan Edition), FLAC (tracks+.cue), lossless
Треклист:
Atlantic Starr - Yours Forever
Жанр: Funk, Soul, Disco
Носитель: CD
Страна-производитель диска (релиза): Япония
Год издания: 1983 (1995)
Издатель (лейбл): A&M Records
Номер по каталогу: POCM-2043
Страна исполнителя (группы): США
Аудиокодек: FLAC (*.flac)
Тип рипа: tracks+.cue
Битрейт аудио: lossless
Продолжительность: 40:39
Источник (релизер): What.CD
Наличие сканов в содержимом раздачи: нет
Треклист:
01. Yours Forever (4:55)
02. Touch a Four Leaf Clover (4:44)
03. More, More, More (4:44)
04. I Want Your Love (5:00)
05. Second to None (4:39)
06. Island Dream (4:53)
07. Who Could Love You Better? (4:32)
08. More Time for Me (3:44)
09. Tryin' (3:28)
 
Лог создания рипа
Exact Audio Copy V1.0 beta 3 from 29. August 2011
EAC extraction logfile from 21. March 2012, 14:42
Atlantic Starr / Yours Forever
Used drive : HL-DT-STBD-RE BT11F Adapter: 0 ID: 2
Read mode : Secure
Utilize accurate stream : Yes
Defeat audio cache : Yes
Make use of C2 pointers : No
Read offset correction : 667
Overread into Lead-In and Lead-Out : No
Fill up missing offset samples with silence : Yes
Delete leading and trailing silent blocks : No
Null samples used in CRC calculations : Yes
Used interface : Native Win32 interface for Win NT & 2000
Gap handling : Appended to previous track
Used output format : User Defined Encoder
Selected bitrate : 256 kBit/s
Quality : High
Add ID3 tag : No
Command line compressor : C:\Program Files (x86)\Exact Audio Copy\Flac\flac.exe
Additional command line options : -8 -V -T "ARTIST=%artist%" -T "TITLE=%title%" -T "ALBUM=%albumtitle%" -T "DATE=%year%" -T "TRACKNUMBER=%tracknr%" -T "TOTALTRACKS=%numtracks%" -T "GENRE=%genre%" -T "ALBUMARTIST=%albumartist%" -T "ALBUM ARTIST=%albumartist%" -T "COMMENT=EAC Secure Mode, Test & Copy, AccurateRip, FLAC -8" %source%
TOC of the extracted CD
Track | Start | Length | Start sector | End sector
---------------------------------------------------------
1 | 0:00.00 | 4:55.12 | 0 | 22136
2 | 4:55.12 | 4:43.38 | 22137 | 43399
3 | 9:38.50 | 4:43.57 | 43400 | 64681
4 | 14:22.32 | 5:00.33 | 64682 | 87214
5 | 19:22.65 | 4:39.10 | 87215 | 108149
6 | 24:02.00 | 4:52.40 | 108150 | 130089
7 | 28:54.40 | 4:31.67 | 130090 | 150481
8 | 33:26.32 | 3:44.10 | 150482 | 167291
9 | 37:10.42 | 3:28.33 | 167292 | 182924
Track 1
Filename D:\Music\EAC\01 - Yours Forever.wav
Pre-gap length 0:00:02.00
Peak level 81.5 %
Extraction speed 2.2 X
Track quality 99.9 %
Test CRC 3668BC07
Copy CRC 3668BC07
Track not present in AccurateRip database
Copy OK
Track 2
Filename D:\Music\EAC\02 - Touch A Four Leaf Clover.wav
Pre-gap length 0:00:01.10
Peak level 85.2 %
Extraction speed 2.4 X
Track quality 99.9 %
Test CRC 6B45AEF4
Copy CRC 6B45AEF4
Track not present in AccurateRip database
Copy OK
Track 3
Filename D:\Music\EAC\03 - More, More, More.wav
Pre-gap length 0:00:01.60
Peak level 68.8 %
Extraction speed 3.1 X
Track quality 100.0 %
Test CRC F56CCCBC
Copy CRC F56CCCBC
Track not present in AccurateRip database
Copy OK
Track 4
Filename D:\Music\EAC\04 - I Want Your Love.wav
Pre-gap length 0:00:00.62
Peak level 85.7 %
Extraction speed 2.9 X
Track quality 99.9 %
Test CRC AC8C2AA0
Copy CRC AC8C2AA0
Track not present in AccurateRip database
Copy OK
Track 5
Filename D:\Music\EAC\05 - Second To None.wav
Pre-gap length 0:00:01.53
Peak level 99.9 %
Extraction speed 3.6 X
Track quality 100.0 %
Test CRC 80F14EAA
Copy CRC 80F14EAA
Track not present in AccurateRip database
Copy OK
Track 6
Filename D:\Music\EAC\06 - Island Dream.wav
Pre-gap length 0:00:00.55
Peak level 86.7 %
Extraction speed 3.9 X
Track quality 100.0 %
Test CRC AAD9CE93
Copy CRC AAD9CE93
Track not present in AccurateRip database
Copy OK
Track 7
Filename D:\Music\EAC\07 - Who Could Love You Better.wav
Pre-gap length 0:00:00.35
Peak level 77.6 %
Extraction speed 3.4 X
Track quality 99.9 %
Test CRC EA5E53C0
Copy CRC EA5E53C0
Track not present in AccurateRip database
Copy OK
Track 8
Filename D:\Music\EAC\08 - More Time For Me.wav
Pre-gap length 0:00:01.00
Peak level 98.6 %
Extraction speed 4.1 X
Track quality 100.0 %
Test CRC AD2BADA7
Copy CRC AD2BADA7
Track not present in AccurateRip database
Copy OK
Track 9
Filename D:\Music\EAC\09 - Tryin'.wav
Pre-gap length 0:00:01.02
Peak level 72.5 %
Extraction speed 4.2 X
Track quality 100.0 %
Test CRC 4FFFDD0D
Copy CRC 4FFFDD0D
Track not present in AccurateRip database
Copy OK
None of the tracks are present in the AccurateRip database
No errors occurred
End of status report
---- CUETools DB Plugin V2.1.3
[CTDB TOCID: ciJ6yRdBEM17u16FyYa2PYljGzk-] disk not present in database, Submit result: ciJ6yRdBEM17u16FyYa2PYljGzk- has been uploaded
==== Log checksum A13B93776623EE7D507F8D838306EA714CAB0CCD97549CB5E79765C5C93E63A1 ====
 
Содержание индексной карты (.CUE)
REM GENRE R&B
REM DATE 1983
REM DISCID 70098709
REM COMMENT "ExactAudioCopy v1.0b3"
PERFORMER "Atlantic Starr"
TITLE "Yours Forever"
FILE "01 - Yours Forever.wav" WAVE
TRACK 01 AUDIO
TITLE "Yours Forever"
PERFORMER "Atlantic Starr"
INDEX 01 00:00:00
TRACK 02 AUDIO
TITLE "Touch a Four Leaf Clover"
PERFORMER "Atlantic Starr"
INDEX 00 04:54:02
FILE "02 - Touch a Four Leaf Clover.wav" WAVE
INDEX 01 00:00:00
TRACK 03 AUDIO
TITLE "More, More, More"
PERFORMER "Atlantic Starr"
INDEX 00 04:41:53
FILE "03 - More, More, More.wav" WAVE
INDEX 01 00:00:00
TRACK 04 AUDIO
TITLE "I Want Your Love"
PERFORMER "Atlantic Starr"
INDEX 00 04:42:70
FILE "04 - I Want Your Love.wav" WAVE
INDEX 01 00:00:00
TRACK 05 AUDIO
TITLE "Second to None"
PERFORMER "Atlantic Starr"
INDEX 00 04:58:55
FILE "05 - Second to None.wav" WAVE
INDEX 01 00:00:00
TRACK 06 AUDIO
TITLE "Island Dream"
PERFORMER "Atlantic Starr"
INDEX 00 04:38:30
FILE "06 - Island Dream.wav" WAVE
INDEX 01 00:00:00
TRACK 07 AUDIO
TITLE "Who Could Love You Better?"
PERFORMER "Atlantic Starr"
INDEX 00 04:52:05
FILE "07 - Who Could Love You Better.wav" WAVE
INDEX 01 00:00:00
TRACK 08 AUDIO
TITLE "More Time for Me"
PERFORMER "Atlantic Starr"
INDEX 00 04:30:67
FILE "08 - More Time for Me.wav" WAVE
INDEX 01 00:00:00
TRACK 09 AUDIO
TITLE "Tryin'"
PERFORMER "Atlantic Starr"
INDEX 00 03:43:08
FILE "09 - Tryin'.wav" WAVE
INDEX 01 00:00:00
 
Отчет CUETools
[CUETools log; Date: 06.06.2017 1:17:22; Version: 2.1.5]
[CTDB TOCID: ciJ6yRdBEM17u16FyYa2PYljGzk-] found.
Track | CTDB Status
1 | (9/9) Accurately ripped
2 | (9/9) Accurately ripped
3 | (9/9) Accurately ripped
4 | (9/9) Accurately ripped
5 | (9/9) Accurately ripped
6 | (9/9) Accurately ripped
7 | (9/9) Accurately ripped
8 | (9/9) Accurately ripped
9 | (9/9) Accurately ripped
[AccurateRip ID: 000e97d5-006a50f6-70098709] found.
Track [ CRC | V2 ] Status
01 [20db88f6|ac2b5a6a] (0+0/3) No match
02 [f02d4731|0054f1bd] (0+0/3) No match
03 [77d0197f|939f18b5] (0+0/3) No match
04 [72d64f59|2526d33f] (0+0/3) No match
05 [bc5af624|81dde372] (0+0/3) No match
06 [2fdff66f|bdd37bc8] (0+0/3) No match
07 [63630804|0c0f3d13] (0+0/3) No match
08 [7e2dc806|171a8a3b] (0+0/3) No match
09 [2aeded4f|c07ff303] (0+0/3) No match
Offsetted by 6:
01 [94024c64] (0/3) No match (V2 was not tested)
02 [03c4d96d] (0/3) No match (V2 was not tested)
03 [f9406047] (0/3) No match (V2 was not tested)
04 [11995a39] (0/3) No match (V2 was not tested)
05 [1b79c054] (0/3) No match (V2 was not tested)
06 [d1c0a127] (0/3) No match (V2 was not tested)
07 [38ee2d80] (0/3) No match (V2 was not tested)
08 [2b900b86] (0/3) No match (V2 was not tested)
09 [fc260147] (0/3) No match (V2 was not tested)
Track Peak [ CRC32 ] [W/O NULL] [ LOG ]
-- 99,9 [7F38B6DA] [23D284AD]
01 81,5 [3668BC07] [67B96664] CRC32
02 85,2 [6B45AEF4] [F8871390] CRC32
03 68,8 [F56CCCBC] [C44ADD03] CRC32
04 85,7 [AC8C2AA0] [C7A4D5FE] CRC32
05 99,9 [80F14EAA] [AE0E0B98] CRC32
06 86,7 [AAD9CE93] [A09F581D] CRC32
07 77,6 [EA5E53C0] [A1CD5008] CRC32
08 98,6 [AD2BADA7] [1DA2938D] CRC32
09 72,5 [4FFFDD0D] [015EBA44] CRC32
 
AllMusic Review by Alex Henderson
Atlantic Starr's fifth album, Yours Forever, was lead singer Sharon Bryant's last album with the East Coast soulsters; it was also the last of three albums that James Carmichael produced for them. While 1981's Radiant and 1982's Brilliance -- the two previous Atlantic Starr LPs that Carmichael had produced -- were superb, this 1983 release is uneven. That isn't to say that Yours Forever is a bad album; none of the material is terrible. But this time, there aren't as many five-star gems. The songs that deserve to be exalted as gems range from the haunting smash "Touch a Four Leaf Clover" and the rock-tinged "Tryin" (both of which feature Bryant) to the dreamy title song (which finds David Lewis providing a memorable lead vocal). Unfortunately, Yours Forever also has its share of songs that are merely competent. Take "I Want Your Love," for example. This Chic-like sophisti-funk/dance number (which shouldn't be confused with the 1978 Chic hit that is also titled "I Want Your Love") is pleasant enough, but it isn't in a class with "Circles," "When Love Calls," "Love Me Down," and other treasures that Carmichael had produced for Atlantic Starr in 1981 or 1982. For Atlantic Starr fans, hearing Yours Forever in 1983 was like receiving beer when you had grown accustomed to champagne -- if Radiant and Brilliance were R&B feasts, Yours Forever is merely a snack. It isn't a disaster, but it doesn't live up to the consistently high standards that had characterized Atlantic Starr's previous work with Carmichael. Of the three albums that Carmichael produced for Atlantic Starr in the early '80s, Yours Forever is the least essential and the most inconsistent.
Приватный:
Нет (DHT включён)
Размер:
251.43 Мб (263,639,942 байт) » файлов: 19
Участники:
0 раздают, 2 качают (2 участников всего)
Внешние участники:
3 раздают, 1 качают (4 участников всего) [ Обновить ]
Скорость:
1.90 Мб/c 0/c
Есть вопросы - пишите личное сообщение пользователю M0p94ok.
13:45
104
Нет комментариев. Ваш будет первым!