Поиск

(Funk, Soul, Disco) [CD] Atlantic Starr - Brilliance - 1982 (2007), FLAC (tracks+.cue), lossless

(Funk, Soul, Disco) [CD] Atlantic Starr - Brilliance - 1982 (2007), FLAC (tracks+.cue), lossless
Треклист:
Atlantic Starr - Brilliance
Жанр: Funk, Soul, Disco
Носитель: CD
Страна-производитель диска (релиза): Нидерланды
Год издания: 1982 (2007)
Издатель (лейбл): PTG Records
Номер по каталогу: PTG 34029
Страна исполнителя (группы): США
Аудиокодек: FLAC (*.flac)
Тип рипа: tracks+.cue
Битрейт аудио: lossless
Продолжительность: 39:06
Источник (релизер): james77
Наличие сканов в содержимом раздачи: да
Треклист:
01. Love Me Down (4:54)
02. Sexy Dancer (4:55)
03. Love Moves (5:12)
04. Your Love Finally Ran Out (4:51)
05. Circles (4:55)
06. Let's Get Closer (5:23)
07. Perfect Love (4:43)
08. You're the One (4:13)
 
Лог создания рипа
Exact Audio Copy V1.0 beta 3 from 29. August 2011
EAC extraction logfile from 16. May 2017, 5:56
Atlantic Starr / Brilliance
Used drive : Optiarc DVD RW AD-7260S Adapter: 3 ID: 0
Read mode : Secure
Utilize accurate stream : Yes
Defeat audio cache : Yes
Make use of C2 pointers : No
Read offset correction : 48
Overread into Lead-In and Lead-Out : No
Fill up missing offset samples with silence : Yes
Delete leading and trailing silent blocks : No
Null samples used in CRC calculations : Yes
Used interface : Native Win32 interface for Win NT & 2000
Gap handling : Appended to previous track
Used output format : User Defined Encoder
Selected bitrate : 1024 kBit/s
Quality : High
Add ID3 tag : No
Command line compressor : D:\Program Files\Exact Audio Copy1.0\FLAC\FLAC.EXE
Additional command line options : -8 -e -p -V -T "ARTIST=%artist%" -T "TITLE=%title%" -T "ALBUM=%albumtitle%" -T "DATE=%year%" -T "TRACKNUMBER=%tracknr%" -T "GENRE=%genre%" -T "PERFORMER=%albuminterpret%" -T "COMPOSER=%composer%" %haslyrics%--tag-from-file=LYRICS="%lyricsfile%"%haslyrics% -T "ALBUMARTIST=%albumartist%" -T "DISCNUMBER=%cdnumber%" -T "TOTALDISCS=%totalcds%" -T "TOTALTRACKS=%numtracks%" -T "COMMENT=%comment%" %source% -o %dest%
TOC of the extracted CD
Track | Start | Length | Start sector | End sector
---------------------------------------------------------
1 | 0:00.00 | 4:53.41 | 0 | 22015
2 | 4:53.41 | 4:55.14 | 22016 | 44154
3 | 9:48.55 | 5:12.37 | 44155 | 67591
4 | 15:01.17 | 4:50.63 | 67592 | 89404
5 | 19:52.05 | 4:54.62 | 89405 | 111516
6 | 24:46.67 | 5:23.36 | 111517 | 135777
7 | 30:10.28 | 4:43.05 | 135778 | 157007
8 | 34:53.33 | 4:13.28 | 157008 | 176010
Track 1
Filename E:\James77CDs\Atlantic Starr - Brilliance - CD - 1982 (2007 PTG34029) - FLAC\01 - Love Me Down.wav
Pre-gap length 0:00:02.00
Peak level 96.6 %
Extraction speed 2.4 X
Track quality 100.0 %
Test CRC 215E63DF
Copy CRC 215E63DF
Accurately ripped (confidence 2) [0F235010] (AR v2)
Copy OK
Track 2
Filename E:\James77CDs\Atlantic Starr - Brilliance - CD - 1982 (2007 PTG34029) - FLAC\02 - Sexy Dancer.wav
Pre-gap length 0:00:02.00
Peak level 96.6 %
Extraction speed 2.7 X
Track quality 100.0 %
Test CRC 287BDB4C
Copy CRC 287BDB4C
Accurately ripped (confidence 2) [111CBEEC] (AR v2)
Copy OK
Track 3
Filename E:\James77CDs\Atlantic Starr - Brilliance - CD - 1982 (2007 PTG34029) - FLAC\03 - Love Moves.wav
Pre-gap length 0:00:02.00
Peak level 96.6 %
Extraction speed 3.0 X
Track quality 100.0 %
Test CRC 7CBEC951
Copy CRC 7CBEC951
Accurately ripped (confidence 2) [4D5A82EA] (AR v2)
Copy OK
Track 4
Filename E:\James77CDs\Atlantic Starr - Brilliance - CD - 1982 (2007 PTG34029) - FLAC\04 - Your Love Finally Ran Out.wav
Pre-gap length 0:00:02.00
Peak level 96.6 %
Extraction speed 3.0 X
Track quality 99.9 %
Test CRC 29D5DEA7
Copy CRC 29D5DEA7
Accurately ripped (confidence 2) [D79168B8] (AR v2)
Copy OK
Track 5
Filename E:\James77CDs\Atlantic Starr - Brilliance - CD - 1982 (2007 PTG34029) - FLAC\05 - Circles.wav
Pre-gap length 0:00:02.00
Peak level 96.6 %
Extraction speed 3.2 X
Track quality 99.9 %
Test CRC 812C910C
Copy CRC 812C910C
Accurately ripped (confidence 3) [6EF2E3F8] (AR v2)
Copy OK
Track 6
Filename E:\James77CDs\Atlantic Starr - Brilliance - CD - 1982 (2007 PTG34029) - FLAC\06 - Let's Get Closer.wav
Pre-gap length 0:00:02.00
Peak level 96.6 %
Extraction speed 3.8 X
Track quality 100.0 %
Test CRC B50FF255
Copy CRC B50FF255
Accurately ripped (confidence 2) [E70CF943] (AR v2)
Copy OK
Track 7
Filename E:\James77CDs\Atlantic Starr - Brilliance - CD - 1982 (2007 PTG34029) - FLAC\07 - Perfect Love.wav
Pre-gap length 0:00:02.00
Peak level 96.6 %
Extraction speed 3.9 X
Track quality 100.0 %
Test CRC 9519C74E
Copy CRC 9519C74E
Accurately ripped (confidence 2) [2CBAE47F] (AR v2)
Copy OK
Track 8
Filename E:\James77CDs\Atlantic Starr - Brilliance - CD - 1982 (2007 PTG34029) - FLAC\08 - You're The One.wav
Pre-gap length 0:00:02.00
Peak level 96.6 %
Extraction speed 4.1 X
Track quality 100.0 %
Test CRC 50DF5146
Copy CRC 50DF5146
Accurately ripped (confidence 2) [321B0192] (AR v2)
Copy OK
All tracks accurately ripped
No errors occurred
End of status report
==== Log checksum 9A3D641B556D261B8765A0F8C3F295521888CCD847AED52342A38A1E10738467 ====
 
Содержание индексной карты (.CUE)
REM GENRE R&B
REM DATE 1982
REM DISCID 6C092A08
REM COMMENT "ExactAudioCopy v1.0b3"
PERFORMER "Atlantic Starr"
TITLE "Brilliance"
FILE "01 - Love Me Down.wav" WAVE
TRACK 01 AUDIO
TITLE "Love Me Down"
PERFORMER "Atlantic Starr"
INDEX 01 00:00:00
TRACK 02 AUDIO
TITLE "Sexy Dancer"
PERFORMER "Atlantic Starr"
INDEX 00 04:51:41
FILE "02 - Sexy Dancer.wav" WAVE
INDEX 01 00:00:00
TRACK 03 AUDIO
TITLE "Love Moves"
PERFORMER "Atlantic Starr"
INDEX 00 04:53:14
FILE "03 - Love Moves.wav" WAVE
INDEX 01 00:00:00
TRACK 04 AUDIO
TITLE "Your Love Finally Ran Out"
PERFORMER "Atlantic Starr"
INDEX 00 05:10:37
FILE "04 - Your Love Finally Ran Out.wav" WAVE
INDEX 01 00:00:00
TRACK 05 AUDIO
TITLE "Circles"
PERFORMER "Atlantic Starr"
INDEX 00 04:48:63
FILE "05 - Circles.wav" WAVE
INDEX 01 00:00:00
TRACK 06 AUDIO
TITLE "Let's Get Closer"
PERFORMER "Atlantic Starr"
INDEX 00 04:52:62
FILE "06 - Let's Get Closer.wav" WAVE
INDEX 01 00:00:00
TRACK 07 AUDIO
TITLE "Perfect Love"
PERFORMER "Atlantic Starr"
INDEX 00 05:21:36
FILE "07 - Perfect Love.wav" WAVE
INDEX 01 00:00:00
TRACK 08 AUDIO
TITLE "You're the One"
PERFORMER "Atlantic Starr"
INDEX 00 04:41:05
FILE "08 - You're the One.wav" WAVE
INDEX 01 00:00:00
 
Отчет CUETools
[CUETools log; Date: 06.06.2017 1:03:47; Version: 2.1.5]
[CTDB TOCID: kdlWoSQFZFYqNYt9q3HE.11hY6g-] found.
Track | CTDB Status
1 | (3/3) Accurately ripped
2 | (3/3) Accurately ripped
3 | (3/3) Accurately ripped
4 | (3/3) Accurately ripped
5 | (3/3) Accurately ripped
6 | (3/3) Accurately ripped
7 | (3/3) Accurately ripped
8 | (3/3) Accurately ripped
[AccurateRip ID: 000c429a-0051b082-6c092a08] found.
Track [ CRC | V2 ] Status
01 [f310545a|0f235010] (2+2/6) Accurately ripped
02 [bf16daa3|111cbeec] (2+2/6) Accurately ripped
03 [ff4fea49|4d5a82ea] (2+2/6) Accurately ripped
04 [296bf1bf|d79168b8] (2+2/6) Accurately ripped
05 [6c87fdf9|6ef2e3f8] (2+3/7) Accurately ripped
06 [2bfe396d|e70cf943] (2+2/6) Accurately ripped
07 [53405f9b|2cbae47f] (2+2/6) Accurately ripped
08 [a5c582f6|321b0192] (2+2/6) Accurately ripped
Offsetted by 664:
01 [0b6bd8ea] (0/6) No match (V2 was not tested)
02 [bfad8ca3] (0/6) No match (V2 was not tested)
03 [3abb4369] (0/6) No match (V2 was not tested)
04 [c2428ab7] (0/6) No match (V2 was not tested)
05 [dd7873c1] (0/7) No match (V2 was not tested)
06 [a0cdb585] (0/6) No match (V2 was not tested)
07 [cce25e2b] (0/6) No match (V2 was not tested)
08 [d94dbbcd] (0/6) No match (V2 was not tested)
Track Peak [ CRC32 ] [W/O NULL] [ LOG ]
-- 96,6 [B29971E7] [A2DBE89B]
01 96,6 [215E63DF] [4C3B8C2C] CRC32
02 96,6 [287BDB4C] [36864E45] CRC32
03 96,6 [7CBEC951] [E5F526D4] CRC32
04 96,6 [29D5DEA7] [D221E3C2] CRC32
05 96,6 [812C910C] [748D915E] CRC32
06 96,6 [B50FF255] [390735B7] CRC32
07 96,6 [9519C74E] [BE65B5E6] CRC32
08 96,6 [50DF5146] [1BCC41C8] CRC32
 
AllMusic Review by Alex Henderson
Atlantic Starr hit its commercial peak in the late '80s, when the bland, insipid adult contemporary ballad "Always" soared to number one on both the pop and R&B charts. That song put Atlantic Starr in the Whitney Houston/Lionel Richie realm -- in other words, people who associate Atlantic Starr with "Always" think of them as a crossover act. But from an R&B standpoint (as opposed to a pop/adult contemporary standpoint), Atlantic Starr provided their best work in the early '80s, when Sharon Bryant was still on board and the East Coast residents were being produced by James Carmichael. Released in 1982, Brilliance was the second of three albums that Carmichael produced for Atlantic Starr -- and it is also one of the band's finest and most essential releases. There is nothing not to like about this LP. The soul ballads "Your Love Finally Ran Out" and "Let's Get Closer" are excellent, and so are up-tempo funk/dance numbers like "Sexy Dancer" and "Love Moves" (which features Wayne Lewis on lead vocals and has a Slave/Steve Arrington/Aurra type of appeal). Brilliance, however, is best known for Bryant's soaring performance on the smash hit "Circles," which is one of those songs that is great on the dancefloor but is equally appealing if you want to simply sit down and listen to it. Bryant also excels on the single "Love Me Down," which wasn't as big a hit as "Circles" (it reached number 14 on Billboard's R&B singles chart), but is still a fine medium-tempo item. If you have only a casual interest in Atlantic Starr and only want to have a few of its albums in your collection, Brilliance should definitely be among them.
Приватный:
Нет (DHT включён)
Размер:
266.78 Мб (279,737,117 байт) » файлов: 18
Участники:
0 раздают, 1 качают (1 участников всего)
Внешние участники:
1 раздают, 0 качают (1 участников всего) [ Обновить ]
Есть вопросы - пишите личное сообщение пользователю M0p94ok.
13:45
219
Нет комментариев. Ваш будет первым!