Поиск

(Funk, Soul, Disco) [CD] Atlantic Starr - Radiant - 1980 (2007), FLAC (tracks+.cue), lossless

(Funk, Soul, Disco) [CD] Atlantic Starr - Radiant - 1980 (2007), FLAC (tracks+.cue), lossless
Треклист:
Atlantic Starr - Radiant
Жанр: Funk, Soul, Disco
Носитель: CD
Страна-производитель диска (релиза): Нидерланды
Год издания: 1980 (2007)
Издатель (лейбл): PTG Records
Номер по каталогу: PTG 34031
Страна исполнителя (группы): США
Аудиокодек: FLAC (*.flac)
Тип рипа: tracks+.cue
Битрейт аудио: lossless
Продолжительность: 37:45
Источник (релизер): james77
Наличие сканов в содержимом раздачи: да
Треклист:
01. When Love Calls (4:32)
02. Does It Matter (4:25)
03. Think About That (4:59)
04. Send for Me (5:16)
05. Mystery Girl (4:22)
06. Am I Dreaming (5:32)
07. Under Pressure (4:06)
08. My Turn Now (4:33)
 
Лог создания рипа
Exact Audio Copy V1.3 from 2. September 2016
EAC extraction logfile from 19. March 2017, 22:16
Atlantic Starr / Radiant
Used drive : MATSHITADVD-RAM UJ8B0 Adapter: 1 ID: 0
Read mode : Secure
Utilize accurate stream : Yes
Defeat audio cache : Yes
Make use of C2 pointers : No
Read offset correction : 102
Overread into Lead-In and Lead-Out : No
Fill up missing offset samples with silence : Yes
Delete leading and trailing silent blocks : No
Null samples used in CRC calculations : Yes
Used interface : Native Win32 interface for Win NT & 2000
Gap handling : Appended to previous track
Used output format : User Defined Encoder
Selected bitrate : 1024 kBit/s
Quality : High
Add ID3 tag : No
Command line compressor : C:\Program Files (x86)\Exact Audio Copy\FLAC\FLAC.EXE
Additional command line options : -8 -e -p -V -T "ARTIST=%artist%" -T "TITLE=%title%" -T "ALBUM=%albumtitle%" -T "DATE=%year%" -T "TRACKNUMBER=%tracknr%" -T "GENRE=%genre%" -T "PERFORMER=%albuminterpret%" -T "COMPOSER=%composer%" %haslyrics%--tag-from-file=LYRICS="%lyricsfile%"%haslyrics% -T "ALBUMARTIST=%albumartist%" -T "DISCNUMBER=%cdnumber%" -T "TOTALDISCS=%totalcds%" -T "TOTALTRACKS=%numtracks%" -T "COMMENT=%comment%" %source% -o %dest%
TOC of the extracted CD
Track | Start | Length | Start sector | End sector
---------------------------------------------------------
1 | 0:00.00 | 4:32.04 | 0 | 20403
2 | 4:32.04 | 4:24.56 | 20404 | 40259
3 | 8:56.60 | 4:58.41 | 40260 | 62650
4 | 13:55.26 | 5:15.71 | 62651 | 86346
5 | 19:11.22 | 4:21.56 | 86347 | 105977
6 | 23:33.03 | 5:32.14 | 105978 | 130891
7 | 29:05.17 | 4:05.60 | 130892 | 149326
8 | 33:11.02 | 4:32.54 | 149327 | 169780
Track 1
Filename D:\James77CDs\Atlantic Starr - Radiant - CD - 1980 (2007 Reissue) - FLAC\01 - When Love Calls.wav
Pre-gap length 0:00:02.00
Peak level 96.6 %
Extraction speed 1.5 X
Track quality 100.0 %
Test CRC 082DC941
Copy CRC 082DC941
Track not present in AccurateRip database
Copy OK
Track 2
Filename D:\James77CDs\Atlantic Starr - Radiant - CD - 1980 (2007 Reissue) - FLAC\02 - Does It Matter.wav
Pre-gap length 0:00:02.00
Peak level 96.6 %
Extraction speed 1.6 X
Track quality 100.0 %
Test CRC 10FCE044
Copy CRC 10FCE044
Track not present in AccurateRip database
Copy OK
Track 3
Filename D:\James77CDs\Atlantic Starr - Radiant - CD - 1980 (2007 Reissue) - FLAC\03 - Think About That.wav
Pre-gap length 0:00:02.00
Peak level 96.6 %
Extraction speed 1.9 X
Track quality 100.0 %
Test CRC C60D7533
Copy CRC C60D7533
Track not present in AccurateRip database
Copy OK
Track 4
Filename D:\James77CDs\Atlantic Starr - Radiant - CD - 1980 (2007 Reissue) - FLAC\04 - Send For Me.wav
Pre-gap length 0:00:02.00
Peak level 96.6 %
Extraction speed 2.0 X
Track quality 100.0 %
Test CRC 37F97D90
Copy CRC 37F97D90
Track not present in AccurateRip database
Copy OK
Track 5
Filename D:\James77CDs\Atlantic Starr - Radiant - CD - 1980 (2007 Reissue) - FLAC\05 - Mystery Girl.wav
Pre-gap length 0:00:02.00
Peak level 96.6 %
Extraction speed 2.1 X
Track quality 100.0 %
Test CRC 02E3A8E7
Copy CRC 02E3A8E7
Track not present in AccurateRip database
Copy OK
Track 6
Filename D:\James77CDs\Atlantic Starr - Radiant - CD - 1980 (2007 Reissue) - FLAC\06 - Am I Dreaming.wav
Pre-gap length 0:00:02.00
Peak level 96.6 %
Extraction speed 2.3 X
Track quality 100.0 %
Test CRC 90835615
Copy CRC 90835615
Track not present in AccurateRip database
Copy OK
Track 7
Filename D:\James77CDs\Atlantic Starr - Radiant - CD - 1980 (2007 Reissue) - FLAC\07 - Under Pressure.wav
Pre-gap length 0:00:02.00
Peak level 96.6 %
Extraction speed 2.4 X
Track quality 100.0 %
Test CRC B711A29E
Copy CRC B711A29E
Track not present in AccurateRip database
Copy OK
Track 8
Filename D:\James77CDs\Atlantic Starr - Radiant - CD - 1980 (2007 Reissue) - FLAC\08 - My Turn Now.wav
Pre-gap length 0:00:02.00
Peak level 96.6 %
Extraction speed 2.5 X
Track quality 100.0 %
Test CRC 3D6974F1
Copy CRC 3D6974F1
Track not present in AccurateRip database
Copy OK
None of the tracks are present in the AccurateRip database
No errors occurred
End of status report
---- CUETools DB Plugin V2.1.6
[CTDB TOCID: 7ak7bUTYpcmWWJNayvrfdW0ueEw-] found
Submit result: 7ak7bUTYpcmWWJNayvrfdW0ueEw- has been confirmed
Track | CTDB Status
1 | (6/6) Accurately ripped
2 | (6/6) Accurately ripped
3 | (6/6) Accurately ripped
4 | (6/6) Accurately ripped
5 | (6/6) Accurately ripped
6 | (6/6) Accurately ripped
7 | (6/6) Accurately ripped
8 | (6/6) Accurately ripped
==== Log checksum 59046F338C238B4284AA019D9940E8A1DC1F63B351394802D4AF6130B777ED14 ====
 
Содержание индексной карты (.CUE)
REM GENRE R&B
REM DATE 1980
REM DISCID 6F08D708
REM COMMENT "ExactAudioCopy v1.3"
PERFORMER "Atlantic Starr"
TITLE "Radiant"
FILE "01 - When Love Calls.wav" WAVE
TRACK 01 AUDIO
TITLE "When Love Calls"
PERFORMER "Atlantic Starr"
INDEX 01 00:00:00
TRACK 02 AUDIO
TITLE "Does It Matter"
PERFORMER "Atlantic Starr"
INDEX 00 04:30:04
FILE "02 - Does It Matter.wav" WAVE
INDEX 01 00:00:00
TRACK 03 AUDIO
TITLE "Think About That"
PERFORMER "Atlantic Starr"
INDEX 00 04:22:56
FILE "03 - Think About That.wav" WAVE
INDEX 01 00:00:00
TRACK 04 AUDIO
TITLE "Send for Me"
PERFORMER "Atlantic Starr"
INDEX 00 04:56:41
FILE "04 - Send for Me.wav" WAVE
INDEX 01 00:00:00
TRACK 05 AUDIO
TITLE "Mystery Girl"
PERFORMER "Atlantic Starr"
INDEX 00 05:13:71
FILE "05 - Mystery Girl.wav" WAVE
INDEX 01 00:00:00
TRACK 06 AUDIO
TITLE "Am I Dreaming"
PERFORMER "Atlantic Starr"
INDEX 00 04:19:56
FILE "06 - Am I Dreaming.wav" WAVE
INDEX 01 00:00:00
TRACK 07 AUDIO
TITLE "Under Pressure"
PERFORMER "Atlantic Starr"
INDEX 00 05:30:14
FILE "07 - Under Pressure.wav" WAVE
INDEX 01 00:00:00
TRACK 08 AUDIO
TITLE "My Turn Now"
PERFORMER "Atlantic Starr"
INDEX 00 04:03:60
FILE "08 - My Turn Now.wav" WAVE
INDEX 01 00:00:00
 
Отчет CUETools
[CUETools log; Date: 06.06.2017 0:48:17; Version: 2.1.5]
[CTDB TOCID: 7ak7bUTYpcmWWJNayvrfdW0ueEw-] found.
Track | CTDB Status
1 | (7/7) Accurately ripped
2 | (7/7) Accurately ripped
3 | (7/7) Accurately ripped
4 | (7/7) Accurately ripped
5 | (7/7) Accurately ripped
6 | (7/7) Accurately ripped
7 | (7/7) Accurately ripped
8 | (7/7) Accurately ripped
[AccurateRip ID: 000baec8-004e1add-6f08d708] found.
Track [ CRC | V2 ] Status
01 [80a16475|c619eb70] (2+3/5) Accurately ripped
02 [70d415e0|ee07076d] (2+3/5) Accurately ripped
03 [02aa3098|2340c1e5] (2+3/5) Accurately ripped
04 [086d500e|120815ad] (2+3/5) Accurately ripped
05 [4d079a00|b43fda91] (2+3/5) Accurately ripped
06 [13529dba|f95b7947] (2+3/5) Accurately ripped
07 [eaf4c119|c3d1686d] (2+3/5) Accurately ripped
08 [9015c259|3a3ec8d0] (2+3/5) Accurately ripped
Track Peak [ CRC32 ] [W/O NULL] [ LOG ]
-- 96,6 [4C7C77BF] [B1B62CEC]
01 96,6 [082DC941] [78D1854D] CRC32
02 96,6 [10FCE044] [F94B4910] CRC32
03 96,6 [C60D7533] [1CF3BEED] CRC32
04 96,6 [37F97D90] [3DC9BED3] CRC32
05 96,6 [02E3A8E7] [AC970702] CRC32
06 96,6 [90835615] [7810E853] CRC32
07 96,6 [B711A29E] [CD015B05] CRC32
08 96,6 [3D6974F1] [B24BA027] CRC32
 
AllMusic Review by Alex Henderson
Both creatively and commercially, Radiant was a major step forward for Atlantic Starr -- and the person they can thank is James Carmichael. This 1981 release was the first album that Carmichael produced for the band, whose two previous LPs (Atlantic Starr in 1978 and Straight to the Point in 1979) were decent but not great. Atlantic Starr needed to get to the next level, and Carmichael obviously gave the White Plains, NY, combo the sort of guidance, direction, and constructive criticism it needed to make the transition from decent to excellent. Radiant gets off to an impressive start with the haunting single "When Love Calls," and the material that follows is equally strong. That is true whether Atlantic Starr is getting into sentimental soul ballads ("Am I Dreaming," "Send for Me") or tough, gritty funk ("Think About That," "Under Pressure"). One of the band's greatest assets on this LP is lead singer Sharon Bryant; Carmichael brings out the best in her, and she really soars on "When Love Calls," as well as "My Turn Now" and the hit "Am I Dreaming" (a male/female duet with fellow lead singer David Lewis). But Bryant isn't the only lead vocalist who excels on this record. David and Wayne Lewis are also fine singers; "Send for Me," in fact, boasts one of Wayne's most memorable performances. And once again, Carmichael deserves much of the credit -- he pushed the Lewis Brothers to excel just as he pushed Bryant to excel. With Carmichael's help, Radiant went down in history as one Atlantic Starr's finest and most essential albums.
Приватный:
Нет (DHT включён)
Размер:
242.03 Мб (253,791,794 байт) » файлов: 15
Участники:
0 раздают, 0 качают (0 участников всего)
Внешние участники:
1 раздают, 0 качают (1 участников всего) [ Обновить ]
Есть вопросы - пишите личное сообщение пользователю M0p94ok.
13:44
88
Нет комментариев. Ваш будет первым!