Поиск

(Funk, Soul, Disco) [CD] Atlantic Starr - Atlantic Starr - 1978 (2010), FLAC (tracks+.cue), lossless

(Funk, Soul, Disco) [CD] Atlantic Starr - Atlantic Starr - 1978 (2010), FLAC (tracks+.cue), lossless
Треклист:
Atlantic Starr - Atlantic Starr
Жанр: Funk, Soul, Disco
Носитель: CD
Страна-производитель диска (релиза): Нидерланды
Год издания: 1978 (2010)
Издатель (лейбл): PTG Records
Номер по каталогу: PTG 34082
Страна исполнителя (группы): США
Аудиокодек: FLAC (*.flac)
Тип рипа: tracks+.cue
Битрейт аудио: lossless
Продолжительность: 44:13
Источник (релизер): What.CD
Наличие сканов в содержимом раздачи: да
Треклист:
01. Stand Up (4:30)
02. Keep It Comin' (4:32)
03. Visions (3:33)
04. Being in Love with You Is So Much Fun (3:58)
05. (I'll Never Miss) The Love I Never Had (3:47)
06. Gimme Your Luvin' (4:58)
07. With Your Love I Come Alive (4:16)
08. We Got It Together (3:51)
09. Don't Abuse My Love (2:56)
10. Where There's Smoke There's Fire (4:20)
11. Stand Up (Single Version) (3:32)
 
Лог создания рипа
Exact Audio Copy V0.99 prebeta 5 from 4. May 2009
EAC extraction logfile from 10. October 2010, 11:10
Atlantic Star / Atlantic Star
Used drive : Optiarc DVD RW AD-7590S Adapter: 2 ID: 0
Read mode : Secure
Utilize accurate stream : Yes
Defeat audio cache : Yes
Make use of C2 pointers : No
Read offset correction : 48
Overread into Lead-In and Lead-Out : No
Fill up missing offset samples with silence : Yes
Delete leading and trailing silent blocks : No
Null samples used in CRC calculations : Yes
Used interface : Native Win32 interface for Win NT & 2000
Gap handling : Appended to previous track
Used output format : User Defined Encoder
Selected bitrate : 768 kBit/s
Quality : High
Add ID3 tag : No
Command line compressor : C:\Program Files\Exact Audio Copy\Flac\flac.exe
Additional command line options : -8 -V -T "ARTIST=%a" -T "TITLE=%t" -T "ALBUM=%g" -T "DATE=%y" -T "TRACKNUMBER=%n" -T "TOTALTRACKS=%x" -T "GENRE=%m" -T "ALBUMARTIST=%v" -T "ALBUM ARTIST=%v" -T "COMMENT=EAC Secure Mode, Test & Copy, AccurateRip, FLAC -8" %s
TOC of the extracted CD
Track | Start | Length | Start sector | End sector
---------------------------------------------------------
1 | 0:00.00 | 4:30.14 | 0 | 20263
2 | 4:30.14 | 4:32.07 | 20264 | 40670
3 | 9:02.21 | 3:32.56 | 40671 | 56626
4 | 12:35.02 | 3:57.74 | 56627 | 74475
5 | 16:33.01 | 3:47.19 | 74476 | 91519
6 | 20:20.20 | 4:58.20 | 91520 | 113889
7 | 25:18.40 | 4:16.06 | 113890 | 133095
8 | 29:34.46 | 3:51.02 | 133096 | 150422
9 | 33:25.48 | 2:55.60 | 150423 | 163607
10 | 36:21.33 | 4:19.74 | 163608 | 183106
11 | 40:41.32 | 3:32.08 | 183107 | 199014
Track 1
Filename C:\Addis Gugsa why killing HDD\01 - Stand Up.wav
Pre-gap length 0:00:02.00
Peak level 98.8 %
Track quality 100.0 %
Test CRC 22E26006
Copy CRC 22E26006
Accurately ripped (confidence 1) [A3605B47]
Copy OK
Track 2
Filename C:\Addis Gugsa why killing HDD\02 - Keep It Comin'.wav
Peak level 98.8 %
Track quality 100.0 %
Test CRC 357220E4
Copy CRC 357220E4
Accurately ripped (confidence 1) [FB1C7E6F]
Copy OK
Track 3
Filename C:\Addis Gugsa why killing HDD\03 - Visions.wav
Peak level 98.8 %
Track quality 100.0 %
Test CRC E329F816
Copy CRC E329F816
Accurately ripped (confidence 1) [04676C3D]
Copy OK
Track 4
Filename C:\Addis Gugsa why killing HDD\04 - Being In Love With You Is So Much Fun.wav
Peak level 98.8 %
Track quality 100.0 %
Test CRC F18267E7
Copy CRC F18267E7
Accurately ripped (confidence 1) [4A47F552]
Copy OK
Track 5
Filename C:\Addis Gugsa why killing HDD\05 - (I' Ll Never Miss) The Love I Never Had.wav
Peak level 98.8 %
Track quality 100.0 %
Test CRC 7B5C5153
Copy CRC 7B5C5153
Accurately ripped (confidence 1) [0B6AE766]
Copy OK
Track 6
Filename C:\Addis Gugsa why killing HDD\06 - Gimme Your Luvin'.wav
Peak level 98.8 %
Track quality 100.0 %
Test CRC 8B43BEE2
Copy CRC 8B43BEE2
Accurately ripped (confidence 1) [650E6F01]
Copy OK
Track 7
Filename C:\Addis Gugsa why killing HDD\07 - With Your Love I Come Alive.wav
Peak level 98.8 %
Track quality 100.0 %
Test CRC 24CD1B12
Copy CRC 24CD1B12
Accurately ripped (confidence 1) [FB580303]
Copy OK
Track 8
Filename C:\Addis Gugsa why killing HDD\08 - We Got It Together.wav
Peak level 98.8 %
Track quality 100.0 %
Test CRC BEA3589F
Copy CRC BEA3589F
Accurately ripped (confidence 1) [DD945471]
Copy OK
Track 9
Filename C:\Addis Gugsa why killing HDD\09 - Don't Abuse My Love.wav
Peak level 98.8 %
Track quality 100.0 %
Test CRC 33FE868B
Copy CRC 33FE868B
Accurately ripped (confidence 1) [F0226028]
Copy OK
Track 10
Filename C:\Addis Gugsa why killing HDD\10 - Where There's Smoke There's Fire.wav
Peak level 98.8 %
Track quality 99.9 %
Test CRC 5F5AF1FE
Copy CRC 5F5AF1FE
Accurately ripped (confidence 1) [17F24F30]
Copy OK
Track 11
Filename C:\Addis Gugsa why killing HDD\11 - Stand Up (Single Version.wav
Peak level 98.8 %
Track quality 100.0 %
Test CRC BF94FA2D
Copy CRC BF94FA2D
Accurately ripped (confidence 1) [9C5F55A1]
Copy OK
All tracks accurately ripped
No errors occurred
End of status report
 
Содержание индексной карты (.CUE)
REM GENRE R&B
REM DATE 1978
REM DISCID 8C0A5D0B
REM COMMENT "ExactAudioCopy v0.99pb5"
PERFORMER "Atlantic Starr"
TITLE "Atlantic Starr"
FILE "01 - Stand Up.wav" WAVE
TRACK 01 AUDIO
TITLE "Stand Up"
PERFORMER "Atlantic Starr"
INDEX 01 00:00:00
FILE "02 - Keep It Comin'.wav" WAVE
TRACK 02 AUDIO
TITLE "Keep It Comin'"
PERFORMER "Atlantic Starr"
INDEX 01 00:00:00
FILE "03 - Visions.wav" WAVE
TRACK 03 AUDIO
TITLE "Visions"
PERFORMER "Atlantic Starr"
INDEX 01 00:00:00
FILE "04 - Being in Love with You Is So Much Fun.wav" WAVE
TRACK 04 AUDIO
TITLE "Being in Love with You Is So Much Fun"
PERFORMER "Atlantic Starr"
INDEX 01 00:00:00
FILE "05 - (I'll Never Miss) The Love I Never Had.wav" WAVE
TRACK 05 AUDIO
TITLE "(I'll Never Miss) The Love I Never Had"
PERFORMER "Atlantic Starr"
INDEX 01 00:00:00
FILE "06 - Gimme Your Luvin'.wav" WAVE
TRACK 06 AUDIO
TITLE "Gimme Your Luvin'"
PERFORMER "Atlantic Starr"
INDEX 01 00:00:00
FILE "07 - With Your Love I Come Alive.wav" WAVE
TRACK 07 AUDIO
TITLE "With Your Love I Come Alive"
PERFORMER "Atlantic Starr"
INDEX 01 00:00:00
FILE "08 - We Got It Together.wav" WAVE
TRACK 08 AUDIO
TITLE "We Got It Together"
PERFORMER "Atlantic Starr"
INDEX 01 00:00:00
FILE "09 - Don't Abuse My Love.wav" WAVE
TRACK 09 AUDIO
TITLE "Don't Abuse My Love"
PERFORMER "Atlantic Starr"
INDEX 01 00:00:00
FILE "10 - Where There's Smoke There's Fire.wav" WAVE
TRACK 10 AUDIO
TITLE "Where There's Smoke There's Fire"
PERFORMER "Atlantic Starr"
INDEX 01 00:00:00
FILE "11 - Stand Up (Single Version).wav" WAVE
TRACK 11 AUDIO
TITLE "Stand Up (Single Version)"
PERFORMER "Atlantic Starr"
INDEX 01 00:00:00
 
Отчет CUETools
[CUETools log; Date: 06.06.2017 0:29:26; Version: 2.1.5]
[CTDB TOCID: oSzekuy.olDrdp3T9DFP4EdYc.I-] found.
Track | CTDB Status
1 | (4/4) Accurately ripped
2 | (4/4) Accurately ripped
3 | (4/4) Accurately ripped
4 | (4/4) Accurately ripped
5 | (4/4) Accurately ripped
6 | (4/4) Accurately ripped
7 | (4/4) Accurately ripped
8 | (4/4) Accurately ripped
9 | (4/4) Accurately ripped
10 | (4/4) Accurately ripped
11 | (4/4) Accurately ripped
[AccurateRip ID: 0012b7c9-00a134b8-8c0a5d0b] found.
Track [ CRC | V2 ] Status
01 [a3605b47|38cbd31a] (4+2/6) Accurately ripped
02 [fb1c7e6f|f1493b08] (4+2/6) Accurately ripped
03 [04676c3d|03765891] (4+2/6) Accurately ripped
04 [4a47f552|76521d7a] (4+2/6) Accurately ripped
05 [0b6ae766|a7d16102] (4+2/6) Accurately ripped
06 [650e6f01|2df30157] (4+2/6) Accurately ripped
07 [fb580303|da70b77b] (4+2/6) Accurately ripped
08 [dd945471|0c48f9dd] (4+2/6) Accurately ripped
09 [f0226028|b92c2e83] (4+2/6) Accurately ripped
10 [17f24f30|f5717861] (4+2/6) Accurately ripped
11 [9c5f55a1|63a30bfa] (4+2/6) Accurately ripped
Track Peak [ CRC32 ] [W/O NULL] [ LOG ]
-- 98,8 [F74A718B] [BE672B23]
01 98,8 [22E26006] [BADE7BB8] CRC32
02 98,8 [357220E4] [C1BC8017] CRC32
03 98,8 [E329F816] [5C37C93A] CRC32
04 98,8 [F18267E7] [352E966B] CRC32
05 98,8 [7B5C5153] [BBD7DB2D] CRC32
06 98,8 [8B43BEE2] [071D4BF8] CRC32
07 98,8 [24CD1B12] [AB9D4DE9] CRC32
08 98,8 [BEA3589F] [2BA3DDC5] CRC32
09 98,8 [33FE868B] [D41FEA2C] CRC32
10 98,8 [5F5AF1FE] [C0856245] CRC32
11 98,8 [BF94FA2D] [F2A37FB7] CRC32
 
AllMusic Review by Craig Lytle
Atlantic Starr was still trying to get its sound together when this, its first album to the hit the charts, was released. The nine-piece band had an impressive showing on the Billboard R&B charts with "Stand Up" and "Keep It Comin'." The former, led by Wayne Lewis, is a hand-clapping affair with a humpin' funk groove. The latter, led by Sharon Bryant and David Lewis, is a decent effort. Respectively, they both peaked at 16 and 49 on the charts. "(I'll Never Miss) The Love I Never Had" is a notable number. David Lewis comes across with a more convincing delivery than on the other selections he is featured on. The most engaging number is "With Your Love I Come Alive," which showcases Porter Carroll Jr. on lead. His tenor is brawny yet agile and his delivery comes with an unrehearsed feel. Wayne Lewis' vocals were still in a developmental stage, and he had not yet grasped that imposing tone he would later master.
Приватный:
Нет (DHT включён)
Размер:
326.29 Мб (342,142,821 байт) » файлов: 20
Участники:
0 раздают, 0 качают (0 участников всего)
Внешние участники:
2 раздают, 1 качают (3 участников всего) [ Обновить ]
No seeders - write a personal message to user M0p94ok. Нет сидеров - пишите личное сообщение пользователю M0p94ok.
13:43
108
Нет комментариев. Ваш будет первым!