Поиск

(Soul, R&B) [CD] Terri Wells - Just Like Dreamin' (1984) - 2012, FLAC (tracks+.cue), lossless

(Soul, R&B) [CD] Terri Wells - Just Like Dreamin' (1984) - 2012, FLAC (tracks+.cue), lossless
Треклист:
Terri Wells - Just Like Dreamin' (1984) Жанр: Soul, R&B
Носитель: CD
Год издания: 2012
Издатель (лейбл): Big Break Records
Номер по каталогу: CDBBR 0097
Аудиокодек: FLAC (*.flac)
Тип рипа: tracks+.cue
Битрейт аудио: lossless
Продолжительность: 79:22
Rip by JET 1
Наличие сканов в содержимом раздачи: да
Треклист:
01. I'm Givin' All My Love (6:33)
02. Just Like Dreamin' (5:16)
03. Falling Leaves (4:42)
04. Can't Stop (4:11)
05. I Already Know (5:13)
06. I'll Be Around (6:04)
07. Who's That Stranger (5:30)
08. You Make It Heaven (3:59)
09. I'll Be Around (Single Version) (3:59)
10. I'm Givin All My Love (Single Version) (4:10)
11. Just Like Dreamin' (Single Version) (3:56)
12. You Make It Heaven (12″ Version) (5:27)
13. I'll Be Around (Instrumental) (5:24)
14. I'm Givin All My Love (Instrumental) (6:02)
15. Just Like Dreamin' (Instrumental) (4:04)
16. You Make It Heaven (Instrumental) (4:52)
 
 
Об альбоме (сборнике)
Philadelphian Terri Wells had sung in '70s soul group City Limits and contributed the lead vocal to contemporary Dexter Wansel's Top 40 R&B hit "The Sweetest Pain" prior to releasing this underrated solo effort in 1984. The set is notable for its distinctively smooth jazz-oriented take on contemporary R&B. It's an element that most seasoned R&B vocalists – busy living up to the radio trends of the day – didn't catch on to until several years later. The most remarkable track here, outright, is the gorgeous, sailing, midnight groove "You Make It Heaven." Nick Martinelli's warm production plays perfect complement to Wells' elegant yet very personable delivery of the song's simple, straightforward premise. The jazzy up-tempo number "I'm Givin' All My Love" and Wells-written title track are also particularly notable. A few tracks linger in the distance: "Can't Stop" and "I Already Know" are routine pop/R&B workouts. But they're worth skipping over for the luster of the rest. Wells sounds strong and clear throughout, crafting a unique brand of laid-back soul (think Minnie Riperton meets Natalie Cole). It's truly sad that her talent escaped the mainstream's eye, while far-less-capable vocalists such as Janet Jackson and Paula Abdul went on to enjoy massively successful runs.

 
Лог создания рипа
Exact Audio Copy V1.3 from 2. September 2016
EAC extraction logfile from 27. May 2017, 0:27
Terri Wells / Just Like Dreamin'
Used drive : GENERIC CDRCB05 Adapter: 1 ID: 1
Read mode : Secure
Utilize accurate stream : Yes
Defeat audio cache : Yes
Make use of C2 pointers : No
Read offset correction : 102
Overread into Lead-In and Lead-Out : No
Fill up missing offset samples with silence : Yes
Delete leading and trailing silent blocks : No
Null samples used in CRC calculations : Yes
Used interface : Native Win32 interface for Win NT & 2000
Gap handling : Appended to previous track
Used output format : User Defined Encoder
Selected bitrate : 768 kBit/s
Quality : High
Add ID3 tag : No
Command line compressor : C:\Program Files (x86)\Exact Audio Copy\FLAC\FLAC.EXE
Additional command line options : -6 -V -T "ARTIST=%artist%" -T "TITLE=%title%" -T "ALBUM=%albumtitle%" -T "DATE=%year%" -T "TRACKNUMBER=%tracknr%" -T "GENRE=%genre%" -T "COMMENT=%comment%" -T "BAND=%albuminterpret%" -T "ALBUMARTIST=%albuminterpret%" -T "COMPOSER=%composer%" %haslyrics%--tag-from-file=LYRICS="%lyricsfile%"%haslyrics% -T "DISCNUMBER=%cdnumber%" -T "TOTALDISCS=%totalcds%" -T "TOTALTRACKS=%numtracks%" %hascover%--picture="%coverfile%"%hascover% %source% -o %dest%
TOC of the extracted CD
Track | Start | Length | Start sector | End sector
---------------------------------------------------------
1 | 0:00.00 | 6:33.30 | 0 | 29504
2 | 6:33.30 | 5:15.44 | 29505 | 53173
3 | 11:48.74 | 4:41.64 | 53174 | 74312
4 | 16:30.63 | 4:11.25 | 74313 | 93162
5 | 20:42.13 | 5:13.04 | 93163 | 116641
6 | 25:55.17 | 6:04.18 | 116642 | 143959
7 | 31:59.35 | 5:30.04 | 143960 | 168713
8 | 37:29.39 | 3:59.01 | 168714 | 186639
9 | 41:28.40 | 3:58.72 | 186640 | 204561
10 | 45:27.37 | 4:09.70 | 204562 | 223306
11 | 49:37.32 | 3:55.48 | 223307 | 240979
12 | 53:33.05 | 5:26.52 | 240980 | 265481
13 | 58:59.57 | 5:24.09 | 265482 | 289790
14 | 64:23.66 | 6:02.12 | 289791 | 316952
15 | 70:26.03 | 4:03.61 | 316953 | 335238
16 | 74:29.64 | 4:52.37 | 335239 | 357175
Track 1
Filename L:\POST\Terri Wells ‎- Just Like Dreamin' (1984) [2012 BBR]\01 I'm Givin' All My Love.wav
Pre-gap length 0:00:02.00
Peak level 96.6 %
Extraction speed 2.4 X
Track quality 99.9 %
Test CRC 23C4A3FE
Copy CRC 23C4A3FE
Accurately ripped (confidence 3) [63B35D5E] (AR v2)
Copy OK
Track 2
Filename L:\POST\Terri Wells ‎- Just Like Dreamin' (1984) [2012 BBR]\02 Just Like Dreamin'.wav
Peak level 96.6 %
Extraction speed 2.9 X
Track quality 100.0 %
Test CRC 9A369FFF
Copy CRC 9A369FFF
Accurately ripped (confidence 3) [9EA54044] (AR v2)
Copy OK
Track 3
Filename L:\POST\Terri Wells ‎- Just Like Dreamin' (1984) [2012 BBR]\03 Falling Leaves.wav
Peak level 96.6 %
Extraction speed 2.7 X
Track quality 99.9 %
Test CRC D41D897E
Copy CRC D41D897E
Accurately ripped (confidence 3) [DF2B0658] (AR v2)
Copy OK
Track 4
Filename L:\POST\Terri Wells ‎- Just Like Dreamin' (1984) [2012 BBR]\04 Can't Stop.wav
Peak level 96.6 %
Extraction speed 2.8 X
Track quality 99.9 %
Test CRC 174276F0
Copy CRC 174276F0
Accurately ripped (confidence 3) [B675DC71] (AR v2)
Copy OK
Track 5
Filename L:\POST\Terri Wells ‎- Just Like Dreamin' (1984) [2012 BBR]\05 I Already Know.wav
Peak level 96.6 %
Extraction speed 3.1 X
Track quality 99.9 %
Test CRC 4C1B01EA
Copy CRC 4C1B01EA
Accurately ripped (confidence 3) [53849C92] (AR v2)
Copy OK
Track 6
Filename L:\POST\Terri Wells ‎- Just Like Dreamin' (1984) [2012 BBR]\06 I'll Be Around.wav
Peak level 96.6 %
Extraction speed 3.8 X
Track quality 100.0 %
Test CRC 82BE6633
Copy CRC 82BE6633
Accurately ripped (confidence 3) [8483C966] (AR v2)
Copy OK
Track 7
Filename L:\POST\Terri Wells ‎- Just Like Dreamin' (1984) [2012 BBR]\07 Who's That Stranger.wav
Peak level 96.6 %
Extraction speed 4.0 X
Track quality 100.0 %
Test CRC 889DCB54
Copy CRC 889DCB54
Accurately ripped (confidence 3) [4568765C] (AR v2)
Copy OK
Track 8
Filename L:\POST\Terri Wells ‎- Just Like Dreamin' (1984) [2012 BBR]\08 You Make It Heaven.wav
Peak level 96.6 %
Extraction speed 3.6 X
Track quality 99.9 %
Test CRC 30D632C6
Copy CRC 30D632C6
Accurately ripped (confidence 3) [0ADF08B5] (AR v2)
Copy OK
Track 9
Filename L:\POST\Terri Wells ‎- Just Like Dreamin' (1984) [2012 BBR]\09 I'll Be Around (Single Version).wav
Pre-gap length 0:00:01.73
Peak level 96.6 %
Extraction speed 4.2 X
Track quality 100.0 %
Test CRC 2AD02E69
Copy CRC 2AD02E69
Accurately ripped (confidence 3) [DEE0B1B1] (AR v2)
Copy OK
Track 10
Filename L:\POST\Terri Wells ‎- Just Like Dreamin' (1984) [2012 BBR]\10 I'm Givin All My Love (Single Version).wav
Peak level 96.6 %
Extraction speed 4.3 X
Track quality 100.0 %
Test CRC 68AABBEC
Copy CRC 68AABBEC
Accurately ripped (confidence 3) [67E53B54] (AR v2)
Copy OK
Track 11
Filename L:\POST\Terri Wells ‎- Just Like Dreamin' (1984) [2012 BBR]\11 Just Like Dreamin' (Single Version).wav
Peak level 94.5 %
Extraction speed 4.4 X
Track quality 100.0 %
Test CRC C8983C69
Copy CRC C8983C69
Accurately ripped (confidence 3) [8A2A6C0B] (AR v2)
Copy OK
Track 12
Filename L:\POST\Terri Wells ‎- Just Like Dreamin' (1984) [2012 BBR]\12 You Make It Heaven (12'' Version).wav
Peak level 96.6 %
Extraction speed 4.2 X
Track quality 99.9 %
Test CRC 19277712
Copy CRC 19277712
Accurately ripped (confidence 3) [7F6571E0] (AR v2)
Copy OK
Track 13
Filename L:\POST\Terri Wells ‎- Just Like Dreamin' (1984) [2012 BBR]\13 I'll Be Around (Instrumental).wav
Peak level 96.6 %
Extraction speed 4.9 X
Track quality 100.0 %
Test CRC 8F0DFE9B
Copy CRC 8F0DFE9B
Accurately ripped (confidence 3) [7A1FDDB6] (AR v2)
Copy OK
Track 14
Filename L:\POST\Terri Wells ‎- Just Like Dreamin' (1984) [2012 BBR]\14 I'm Givin All My Love (Instrumental).wav
Peak level 96.6 %
Extraction speed 5.1 X
Track quality 100.0 %
Test CRC 79AC8D66
Copy CRC 79AC8D66
Accurately ripped (confidence 3) [BCA0960B] (AR v2)
Copy OK
Track 15
Filename L:\POST\Terri Wells ‎- Just Like Dreamin' (1984) [2012 BBR]\15 Just Like Dreamin' (Instrumental).wav
Peak level 96.6 %
Extraction speed 4.9 X
Track quality 100.0 %
Test CRC FBED1D12
Copy CRC FBED1D12
Accurately ripped (confidence 3) [4CC13AF0] (AR v2)
Copy OK
Track 16
Filename L:\POST\Terri Wells ‎- Just Like Dreamin' (1984) [2012 BBR]\16 You Make It Heaven (Instrumental).wav
Peak level 96.6 %
Extraction speed 4.7 X
Track quality 99.9 %
Test CRC B208BD99
Copy CRC B208BD99
Accurately ripped (confidence 3) [D2A0FE14] (AR v2)
Copy OK
All tracks accurately ripped
No errors occurred
End of status report
---- CUETools DB Plugin V2.1.6
[CTDB TOCID: .PnVTlF6Py_lWIGCkfNDIGO3GCc-] found
Submit result: .PnVTlF6Py_lWIGCkfNDIGO3GCc- has been confirmed
Track | CTDB Status
1 | (3/3) Accurately ripped
2 | (3/3) Accurately ripped
3 | (3/3) Accurately ripped
4 | (3/3) Accurately ripped
5 | (3/3) Accurately ripped
6 | (3/3) Accurately ripped
7 | (3/3) Accurately ripped
8 | (3/3) Accurately ripped
9 | (3/3) Accurately ripped
10 | (3/3) Accurately ripped
11 | (3/3) Accurately ripped
12 | (3/3) Accurately ripped
13 | (3/3) Accurately ripped
14 | (3/3) Accurately ripped
15 | (3/3) Accurately ripped
16 | (3/3) Accurately ripped
==== Log checksum 97AD1EA0616D46A1563B3B89C8AC98084915690583D191F4E82D35D96B441DB7 ====
 
Содержание индексной карты (.CUE)
REM GENRE R&B
REM DATE 1984
REM DISCID EF129A10
REM COMMENT "ExactAudioCopy v1.3"
PERFORMER "Terri Wells"
TITLE "Just Like Dreamin'"
FILE "01 I'm Givin' All My Love.wav" WAVE
TRACK 01 AUDIO
TITLE "I'm Givin' All My Love"
PERFORMER "Terri Wells"
INDEX 01 00:00:00
FILE "02 Just Like Dreamin'.wav" WAVE
TRACK 02 AUDIO
TITLE "Just Like Dreamin'"
PERFORMER "Terri Wells"
INDEX 01 00:00:00
FILE "03 Falling Leaves.wav" WAVE
TRACK 03 AUDIO
TITLE "Falling Leaves"
PERFORMER "Terri Wells"
INDEX 01 00:00:00
FILE "04 Can't Stop.wav" WAVE
TRACK 04 AUDIO
TITLE "Can't Stop"
PERFORMER "Terri Wells"
INDEX 01 00:00:00
FILE "05 I Already Know.wav" WAVE
TRACK 05 AUDIO
TITLE "I Already Know"
PERFORMER "Terri Wells"
INDEX 01 00:00:00
FILE "06 I'll Be Around.wav" WAVE
TRACK 06 AUDIO
TITLE "I'll Be Around"
PERFORMER "Terri Wells"
INDEX 01 00:00:00
FILE "07 Who's That Stranger.wav" WAVE
TRACK 07 AUDIO
TITLE "Who's That Stranger"
PERFORMER "Terri Wells"
INDEX 01 00:00:00
FILE "08 You Make It Heaven.wav" WAVE
TRACK 08 AUDIO
TITLE "You Make It Heaven"
PERFORMER "Terri Wells"
INDEX 01 00:00:00
TRACK 09 AUDIO
TITLE "I'll Be Around (Single Version)"
PERFORMER "Terri Wells"
INDEX 00 03:57:03
FILE "09 I'll Be Around (Single Version).wav" WAVE
INDEX 01 00:00:00
FILE "10 I'm Givin All My Love (Single Version).wav" WAVE
TRACK 10 AUDIO
TITLE "I'm Givin All My Love (Single Version)"
PERFORMER "Terri Wells"
INDEX 01 00:00:00
FILE "11 Just Like Dreamin' (Single Version).wav" WAVE
TRACK 11 AUDIO
TITLE "Just Like Dreamin' (Single Version)"
PERFORMER "Terri Wells"
INDEX 01 00:00:00
FILE "12 You Make It Heaven (12″ Version).wav" WAVE
TRACK 12 AUDIO
TITLE "You Make It Heaven (12″ Version)"
PERFORMER "Terri Wells"
INDEX 01 00:00:00
FILE "13 I'll Be Around (Instrumental).wav" WAVE
TRACK 13 AUDIO
TITLE "I'll Be Around (Instrumental)"
PERFORMER "Terri Wells"
INDEX 01 00:00:00
FILE "14 I'm Givin All My Love (Instrumental).wav" WAVE
TRACK 14 AUDIO
TITLE "I'm Givin All My Love (Instrumental)"
PERFORMER "Terri Wells"
INDEX 01 00:00:00
FILE "15 Just Like Dreamin' (Instrumental).wav" WAVE
TRACK 15 AUDIO
TITLE "Just Like Dreamin' (Instrumental)"
PERFORMER "Terri Wells"
INDEX 01 00:00:00
FILE "16 You Make It Heaven (Instrumental).wav" WAVE
TRACK 16 AUDIO
TITLE "You Make It Heaven (Instrumental)"
PERFORMER "Terri Wells"
INDEX 01 00:00:00
Приватный:
Нет (DHT включён)
Размер:
579.69 Мб (607,849,902 байт) » файлов: 30
Участники:
0 раздают, 0 качают (0 участников всего)
Внешние участники:
2 раздают, 1 качают (3 участников всего) [ Обновить ]
Есть вопросы - пишите личное сообщение пользователю M0p94ok.
13:43
89
Нет комментариев. Ваш будет первым!