Поиск

(Funk, Soul, Disco) [CD] Atlantic Starr - All in the Name of Love - 1987, FLAC (tracks+.cue), lossless

(Funk, Soul, Disco) [CD] Atlantic Starr - All in the Name of Love - 1987, FLAC (tracks+.cue), lossless
Треклист:
Atlantic Starr - All in the Name of Love
Жанр: Funk, Soul, Disco
Носитель: CD
Страна-производитель диска (релиза): США
Год издания: 1987
Издатель (лейбл): Warner Bros. Records
Номер по каталогу: 9 25560-2
Аудиокодек: FLAC (*.flac)
Тип рипа: tracks+.cue
Битрейт аудио: lossless
Продолжительность: 52:23
Источник (релизер): What.CD
Наличие сканов в содержимом раздачи: нет
Треклист:
01. One Lover at a Time (4:01)
02. You Belong with Me (4:53)
03. Females (3:42)
04. Don't Take Me for Granted (5:07)
05. Always (4:47)
06. Armed and Dangerous (4:10)
07. Let the Sun In (4:03)
08. Thankful (4:57)
09. I'm in Love (4:26)
10. All in the Name of Love (5:26)
11. My Mistake (5:19)
12. Interlude (1:32)
 
Лог создания рипа
Exact Audio Copy V1.0 beta 3 from 29. August 2011
EAC extraction logfile from 3. May 2014, 18:58
Atlantic Starr / All In The Name Of love
Used drive : TSSTcorpBDDVDW SE-506BB Adapter: 0 ID: 0
Read mode : Secure
Utilize accurate stream : Yes
Defeat audio cache : Yes
Make use of C2 pointers : No
Read offset correction : 6
Overread into Lead-In and Lead-Out : No
Fill up missing offset samples with silence : Yes
Delete leading and trailing silent blocks : No
Null samples used in CRC calculations : Yes
Used interface : Native Win32 interface for Win NT & 2000
Gap handling : Appended to previous track
Used output format : User Defined Encoder
Selected bitrate : 896 kBit/s
Quality : High
Add ID3 tag : No
Command line compressor : C:\Program Files (x86)\FLAC Frontend\tools\flac.exe
Additional command line options : -8 -V -T "ARTIST=%artist%" -T "TITLE=%title%" -T "ALBUM=%albumtitle%" -T "DATE=%year%" -T "TRACKNUMBER=%tracknr%" -T "GENRE=%genre%" -T "PERFORMER=%albuminterpret%" -T "COMPOSER=%composer%" %haslyrics%--tag-from-file=LYRICS="%lyricsfile%"%haslyrics% -T "ALBUMARTIST=%albumartist%" -T "DISCNUMBER=%cdnumber%" -T "TOTALDISCS=%totalcds%" -T "TOTALTRACKS=%numtracks%" -T "COMMENT=%comment%" %source% -o %dest%
TOC of the extracted CD
Track | Start | Length | Start sector | End sector
---------------------------------------------------------
1 | 0:00.33 | 4:01.07 | 33 | 18114
2 | 4:01.40 | 4:53.18 | 18115 | 40107
3 | 8:54.58 | 3:42.00 | 40108 | 56757
4 | 12:36.58 | 5:07.25 | 56758 | 79807
5 | 17:44.08 | 4:47.35 | 79808 | 101367
6 | 22:31.43 | 4:09.52 | 101368 | 120094
7 | 26:41.20 | 4:03.30 | 120095 | 138349
8 | 30:44.50 | 4:57.10 | 138350 | 160634
9 | 35:41.60 | 4:25.63 | 160635 | 180572
10 | 40:07.48 | 5:26.02 | 180573 | 205024
11 | 45:33.50 | 5:19.20 | 205025 | 228969
12 | 50:52.70 | 1:32.15 | 228970 | 235884
Track 1
Filename C:\Users\Graham\Downloads\What.CD Toolbox 6 for Windows\My CD's\Atlantic Starr - All In The Name Of love - 1987 - FLAC\01 One Lover At A Time.wav
Pre-gap length 0:00:02.44
Peak level 73.3 %
Extraction speed 1.1 X
Track quality 100.0 %
Test CRC BCB04AC9
Copy CRC BCB04AC9
Accurately ripped (confidence 4) [14FEEB7D] (AR v2)
Copy OK
Track 2
Filename C:\Users\Graham\Downloads\What.CD Toolbox 6 for Windows\My CD's\Atlantic Starr - All In The Name Of love - 1987 - FLAC\02 You Belong With Me.wav
Pre-gap length 0:00:00.56
Peak level 74.8 %
Extraction speed 1.3 X
Track quality 100.0 %
Test CRC 17BFA0ED
Copy CRC 17BFA0ED
Accurately ripped (confidence 3) [79A00EC1] (AR v2)
Copy OK
Track 3
Filename C:\Users\Graham\Downloads\What.CD Toolbox 6 for Windows\My CD's\Atlantic Starr - All In The Name Of love - 1987 - FLAC\03 Females.wav
Pre-gap length 0:00:00.17
Peak level 82.5 %
Extraction speed 1.4 X
Track quality 100.0 %
Test CRC 39AAA94A
Copy CRC 39AAA94A
Accurately ripped (confidence 4) [8C087BB0] (AR v2)
Copy OK
Track 4
Filename C:\Users\Graham\Downloads\What.CD Toolbox 6 for Windows\My CD's\Atlantic Starr - All In The Name Of love - 1987 - FLAC\04 Don't Take Me For Granted.wav
Pre-gap length 0:00:00.17
Peak level 71.1 %
Extraction speed 1.6 X
Track quality 100.0 %
Test CRC 0A15E552
Copy CRC 0A15E552
Accurately ripped (confidence 4) [20C50A90] (AR v2)
Copy OK
Track 5
Filename C:\Users\Graham\Downloads\What.CD Toolbox 6 for Windows\My CD's\Atlantic Starr - All In The Name Of love - 1987 - FLAC\05 Always.wav
Pre-gap length 0:00:01.60
Peak level 77.5 %
Extraction speed 1.5 X
Track quality 99.9 %
Test CRC DFDAA8FD
Copy CRC DFDAA8FD
Accurately ripped (confidence 4) [4AE05A73] (AR v2)
Copy OK
Track 6
Filename C:\Users\Graham\Downloads\What.CD Toolbox 6 for Windows\My CD's\Atlantic Starr - All In The Name Of love - 1987 - FLAC\06 Armed And Dangerous.wav
Pre-gap length 0:00:00.64
Peak level 97.0 %
Extraction speed 1.7 X
Track quality 100.0 %
Test CRC 377049E0
Copy CRC 377049E0
Accurately ripped (confidence 4) [D5109661] (AR v2)
Copy OK
Track 7
Filename C:\Users\Graham\Downloads\What.CD Toolbox 6 for Windows\My CD's\Atlantic Starr - All In The Name Of love - 1987 - FLAC\07 Let The Sun In.wav
Pre-gap length 0:00:00.53
Peak level 74.3 %
Extraction speed 1.8 X
Track quality 100.0 %
Test CRC 53BDB530
Copy CRC 53BDB530
Accurately ripped (confidence 4) [2D6ED1DC] (AR v2)
Copy OK
Track 8
Filename C:\Users\Graham\Downloads\What.CD Toolbox 6 for Windows\My CD's\Atlantic Starr - All In The Name Of love - 1987 - FLAC\08 Thankful.wav
Pre-gap length 0:00:00.60
Peak level 79.6 %
Extraction speed 1.8 X
Track quality 99.9 %
Test CRC 7C985537
Copy CRC 7C985537
Accurately ripped (confidence 4) [84C598DB] (AR v2)
Copy OK
Track 9
Filename C:\Users\Graham\Downloads\What.CD Toolbox 6 for Windows\My CD's\Atlantic Starr - All In The Name Of love - 1987 - FLAC\09 I'm In Love.wav
Pre-gap length 0:00:00.56
Peak level 68.4 %
Extraction speed 2.0 X
Track quality 100.0 %
Test CRC BF78F7E9
Copy CRC BF78F7E9
Accurately ripped (confidence 4) [7CA79596] (AR v2)
Copy OK
Track 10
Filename C:\Users\Graham\Downloads\What.CD Toolbox 6 for Windows\My CD's\Atlantic Starr - All In The Name Of love - 1987 - FLAC\10 All In The Name Of Love.wav
Pre-gap length 0:00:00.17
Peak level 81.2 %
Extraction speed 2.0 X
Track quality 99.9 %
Test CRC 33C93D91
Copy CRC 33C93D91
Accurately ripped (confidence 4) [0BC48460] (AR v2)
Copy OK
Track 11
Filename C:\Users\Graham\Downloads\What.CD Toolbox 6 for Windows\My CD's\Atlantic Starr - All In The Name Of love - 1987 - FLAC\11 My Mistake.wav
Pre-gap length 0:00:00.42
Peak level 74.6 %
Extraction speed 2.3 X
Track quality 100.0 %
Test CRC A860A24F
Copy CRC A860A24F
Accurately ripped (confidence 4) [D1CFC6A4] (AR v2)
Copy OK
Track 12
Filename C:\Users\Graham\Downloads\What.CD Toolbox 6 for Windows\My CD's\Atlantic Starr - All In The Name Of love - 1987 - FLAC\12 Interlude.wav
Pre-gap length 0:00:00.16
Peak level 57.2 %
Extraction speed 1.8 X
Track quality 100.0 %
Test CRC E6C903EB
Copy CRC E6C903EB
Accurately ripped (confidence 4) [F1FE501E] (AR v2)
Copy OK
All tracks accurately ripped
No errors occurred
End of status report
==== Log checksum E01753D1D0B5C794BF516D2887DEF8F3FB3C6088C04652BF4CE2D5254670ECB8 ====
 
Содержание индексной карты (.CUE)
REM GENRE R&B
REM DATE 1987
REM DISCID 990C490C
REM COMMENT "ExactAudioCopy v1.0b3"
CATALOG 0075992556026
PERFORMER "Atlantic Starr"
TITLE "All in the Name of Love"
FILE "01 - One Lover at a Time.wav" WAVE
TRACK 01 AUDIO
TITLE "One Lover at a Time"
PERFORMER "Atlantic Starr"
PREGAP 00:00:33
INDEX 01 00:00:00
TRACK 02 AUDIO
TITLE "You Belong with Me"
PERFORMER "Atlantic Starr"
INDEX 00 04:00:40
FILE "02 - You Belong with Me.wav" WAVE
INDEX 01 00:00:00
TRACK 03 AUDIO
TITLE "Females"
PERFORMER "Atlantic Starr"
INDEX 00 04:53:05
FILE "03 - Females.wav" WAVE
INDEX 01 00:00:00
TRACK 04 AUDIO
TITLE "Don't Take Me for Granted"
PERFORMER "Atlantic Starr"
INDEX 00 03:41:62
FILE "04 - Don't Take Me for Granted.wav" WAVE
INDEX 01 00:00:00
TRACK 05 AUDIO
TITLE "Always"
PERFORMER "Atlantic Starr"
INDEX 00 05:05:55
FILE "05 - Always.wav" WAVE
INDEX 01 00:00:00
TRACK 06 AUDIO
TITLE "Armed and Dangerous"
PERFORMER "Atlantic Starr"
INDEX 00 04:46:62
FILE "06 - Armed and Dangerous.wav" WAVE
INDEX 01 00:00:00
TRACK 07 AUDIO
TITLE "Let the Sun In"
PERFORMER "Atlantic Starr"
INDEX 00 04:09:12
FILE "07 - Let the Sun In.wav" WAVE
INDEX 01 00:00:00
TRACK 08 AUDIO
TITLE "Thankful"
PERFORMER "Atlantic Starr"
INDEX 00 04:02:60
FILE "08 - Thankful.wav" WAVE
INDEX 01 00:00:00
TRACK 09 AUDIO
TITLE "I'm in Love"
PERFORMER "Atlantic Starr"
INDEX 00 04:56:43
FILE "09 - I'm in Love.wav" WAVE
INDEX 01 00:00:00
TRACK 10 AUDIO
TITLE "All in the Name of Love"
PERFORMER "Atlantic Starr"
INDEX 00 04:25:50
FILE "10 - All in the Name of Love.wav" WAVE
INDEX 01 00:00:00
TRACK 11 AUDIO
TITLE "My Mistake"
PERFORMER "Atlantic Starr"
INDEX 00 05:25:45
FILE "11 - My Mistake.wav" WAVE
INDEX 01 00:00:00
TRACK 12 AUDIO
TITLE "Interlude"
PERFORMER "Atlantic Starr"
INDEX 00 05:19:08
FILE "12 - Interlude.wav" WAVE
INDEX 01 00:00:00
 
Отчет CUETools
[CUETools log; Date: 06.06.2017 1:30:42; Version: 2.1.5]
Pregap length 00:00:33.
[CTDB TOCID: VUAf4YZ0..lInz18yR8CjyO342Y-] found.
Track | CTDB Status
1 | (17/17) Accurately ripped
2 | (17/17) Accurately ripped
3 | (17/17) Accurately ripped
4 | (17/17) Accurately ripped
5 | (17/17) Accurately ripped
6 | (17/17) Accurately ripped
7 | (17/17) Accurately ripped
8 | (17/17) Accurately ripped
9 | (17/17) Accurately ripped
10 | (17/17) Accurately ripped
11 | (17/17) Accurately ripped
12 | (17/17) Accurately ripped
[AccurateRip ID: 0017e41b-00dfae7d-990c490c] found.
Track [ CRC | V2 ] Status
01 [b5b00ff3|14feeb7d] (05+05/34) Accurately ripped
02 [8f054337|79a00ec1] (06+04/38) Accurately ripped
03 [a4a08924|8c087bb0] (06+05/37) Accurately ripped
04 [479b325f|20c50a90] (06+05/37) Accurately ripped
05 [53d7ed0d|4ae05a73] (06+05/42) Accurately ripped
06 [927a821a|d5109661] (05+05/38) Accurately ripped
07 [ad114285|2d6ed1dc] (06+05/36) Accurately ripped
08 [bc115e64|84c598db] (06+05/35) Accurately ripped
09 [9d44dbf7|7ca79596] (06+05/39) Accurately ripped
10 [ccaab10d|0bc48460] (06+05/37) Accurately ripped
11 [882bdc4f|d1cfc6a4] (06+05/35) Accurately ripped
12 [ffb7fc6f|f1fe501e] (06+05/34) Accurately ripped
Offsetted by 183:
01 [7e270cba] (08/34) Accurately ripped
02 [8742f05a] (09/38) Accurately ripped
03 [c97cd7fb] (09/37) Accurately ripped
04 [dc665bee] (09/37) Accurately ripped
05 [06c3e10d] (11/42) Accurately ripped
06 [8be09ae1] (09/38) Accurately ripped
07 [8f54a7ae] (08/36) Accurately ripped
08 [8885dfa2] (07/35) Accurately ripped
09 [7374b12b] (09/39) Accurately ripped
10 [363bf140] (08/37) Accurately ripped
11 [ac48cc3c] (07/35) Accurately ripped
12 [596bcca3] (08/34) Accurately ripped
Offsetted by 1917:
01 [2cc94220] (00/34) No match (V2 was not tested)
02 [46553fd1] (00/38) No match (V2 was not tested)
03 [b33658d0] (00/37) No match (V2 was not tested)
04 [3f42b6f4] (00/37) No match (V2 was not tested)
05 [bb1ae90d] (00/42) No match (V2 was not tested)
06 [7fb06847] (00/38) No match (V2 was not tested)
07 [82272fa8] (00/36) No match (V2 was not tested)
08 [2ecd694e] (00/35) No match (V2 was not tested)
09 [6d916efe] (00/39) No match (V2 was not tested)
10 [817cb33b] (00/37) No match (V2 was not tested)
11 [955afd5e] (00/35) No match (V2 was not tested)
12 [9a99e62b] (00/34) No match (V2 was not tested)
Offsetted by 2327:
01 [79ce3f1a] (00/34) No match (V2 was not tested)
02 [8ce61b75] (00/38) No match (V2 was not tested)
03 [b35a2efe] (00/37) No match (V2 was not tested)
04 [141da5fc] (00/37) No match (V2 was not tested)
05 [0d04610d] (00/42) No match (V2 was not tested)
06 [d9d14d41] (00/38) No match (V2 was not tested)
07 [c46d0b4e] (00/36) No match (V2 was not tested)
08 [0f40f262] (00/35) No match (V2 was not tested)
09 [974348af] (00/39) No match (V2 was not tested)
10 [dce50c54] (00/37) No match (V2 was not tested)
11 [2d9bd25c] (00/35) No match (V2 was not tested)
12 [95ef3523] (00/34) No match (V2 was not tested)
Track Peak [ CRC32 ] [W/O NULL] [ LOG ]
-- 97,0 [E7D0F299] [B596D8B1]
01 73,3 [BCB04AC9] [04B9E13D] CRC32
02 74,8 [17BFA0ED] [B27E521D] CRC32
03 82,5 [39AAA94A] [34D109CD] CRC32
04 71,1 [0A15E552] [43C04B16] CRC32
05 77,5 [DFDAA8FD] [931D46F6] CRC32
06 97,0 [377049E0] [6202C0F6] CRC32
07 74,3 [53BDB530] [37189C1D] CRC32
08 79,6 [7C985537] [C54CD2EF] CRC32
09 68,4 [BF78F7E9] [0347EF51] CRC32
10 81,2 [33C93D91] [9F3C041C] CRC32
11 74,6 [A860A24F] [DC89D294] CRC32
12 57,2 [E6C903EB] [B2B464A3] CRC32
 
AllMusic Review by Johnny Loftus
While the timeless radio ballad "Always" is the centerpiece of this album (not to mention a few of the more weepy wedding receptions out there), Atlantic Starr's 1987 effort, All in the Name of Love, does feature some solid additional work from the longstanding urban contemporary group. The uplifting "Let the Sun In" features the smooth lead vocals of David Lewis and Wayne Lewis, and percolates with lightly funky bass and inspired percussion. Meanwhile, "You Belong With Me" takes a darker lyrical turn, but is still a solid slice of sanitized, late-'80s urban radio groove. The album could have used more vocals from the talented Barbara Weathers, but it's still a well-appointed record that offers fans much more than just the Whitney-flavored single.
Приватный:
Нет (DHT включён)
Размер:
339.97 Мб (356,481,152 байт) » файлов: 21
Участники:
0 раздают, 0 качают (0 участников всего)
Внешние участники:
2 раздают, 1 качают (3 участников всего) [ Обновить ]
Есть вопросы - пишите личное сообщение пользователю M0p94ok.
13:46
75
Нет комментариев. Ваш будет первым!