Поиск

(Funk, Soul, Disco) [CD] Atlantic Starr - We're Movin' Up - 1989, FLAC (tracks+.cue), lossless

(Funk, Soul, Disco) [CD] Atlantic Starr - We're Movin' Up - 1989, FLAC (tracks+.cue), lossless
Треклист:
Atlantic Starr - We're Movin' Up
Жанр: Funk, Soul, Disco
Носитель: CD
Страна-производитель диска (релиза): США
Год издания: 1989
Издатель (лейбл): Warner Bros. Records
Номер по каталогу: 9 25849-2
Аудиокодек: FLAC (*.flac)
Тип рипа: tracks+.cue
Битрейт аудио: lossless
Продолжительность: 51:14
Источник (релизер): What.CD
Наличие сканов в содержимом раздачи: нет
Треклист:
01. Under Your Spell (4:30)
02. Bring It Back Home Again (4:13)
03. I'm in Love with You (4:30)
04. Don't Start the Fire (3:59)
05. Love Ain't Fair (5:02)
06. My First Love (5:08)
07. Woman's Touch (4:02)
08. Friends (4:13)
09. We're Movin' Up (4:06)
10. My Sugar (3:51)
11. I Can't Wait (4:02)
12. You Deserve the Best (3:38)
 
Лог создания рипа
Exact Audio Copy V0.99 prebeta 4 from 23. January 2008
EAC extraction logfile from 16. May 2009, 15:41
Atlantic Starr / We're Movin' Up
Used drive : MATSHITADVD-RAM UJ-850S Adapter: 0 ID: 0
Read mode : Secure
Utilize accurate stream : Yes
Defeat audio cache : Yes
Make use of C2 pointers : No
Read offset correction : 102
Overread into Lead-In and Lead-Out : No
Fill up missing offset samples with silence : Yes
Delete leading and trailing silent blocks : No
Null samples used in CRC calculations : Yes
Used interface : Native Win32 interface for Win NT & 2000
Gap handling : Appended to previous track
Used output format : User Defined Encoder
Selected bitrate : 128 kBit/s
Quality : High
Add ID3 tag : No
Command line compressor : C:\Program Files\Exact Audio Copy\Flac\flac.exe
Additional command line options : -V -8 -T "artist=%a" -T "title=%t" -T "album=%g" -T "date=%y" -T "tracknumber=%n" -T "genre=%m" %s
TOC of the extracted CD
Track | Start | Length | Start sector | End sector
---------------------------------------------------------
1 | 0:00.33 | 4:29.40 | 33 | 20247
2 | 4:29.73 | 4:12.62 | 20248 | 39209
3 | 8:42.60 | 4:30.18 | 39210 | 59477
4 | 13:13.03 | 3:58.70 | 59478 | 77397
5 | 17:11.73 | 5:02.20 | 77398 | 100067
6 | 22:14.18 | 5:07.67 | 100068 | 123159
7 | 27:22.10 | 4:01.60 | 123160 | 141294
8 | 31:23.70 | 4:12.70 | 141295 | 160264
9 | 35:36.65 | 4:06.00 | 160265 | 178714
10 | 39:42.65 | 3:50.53 | 178715 | 196017
11 | 43:33.43 | 4:02.27 | 196018 | 214194
12 | 47:35.70 | 3:37.50 | 214195 | 230519
Track 1
Filename C:\Users\Max\Documents\Music\01 - Under Our Spell.wav
Pre-gap length 0:00:02.33
Peak level 100.0 %
Track quality 100.0 %
Test CRC C948A50D
Copy CRC C948A50D
Accurately ripped (confidence 1) [0E822DFE]
Copy OK
Track 2
Filename C:\Users\Max\Documents\Music\02 - Bring It Back Home Again.wav
Peak level 100.0 %
Track quality 100.0 %
Test CRC D4F9DEF3
Copy CRC D4F9DEF3
Accurately ripped (confidence 1) [B883556E]
Copy OK
Track 3
Filename C:\Users\Max\Documents\Music\03 - I'm In Love With You.wav
Peak level 100.0 %
Track quality 100.0 %
Test CRC 394DD344
Copy CRC 394DD344
Accurately ripped (confidence 1) [BEEA2F67]
Copy OK
Track 4
Filename C:\Users\Max\Documents\Music\04 - Don't Start The Fire.wav
Pre-gap length 0:00:00.32
Peak level 100.0 %
Track quality 100.0 %
Test CRC CC5D7DF4
Copy CRC CC5D7DF4
Accurately ripped (confidence 1) [3C4E1FB7]
Copy OK
Track 5
Filename C:\Users\Max\Documents\Music\05 - Love Ain't Fair.wav
Peak level 100.0 %
Track quality 100.0 %
Test CRC 8B6A6B83
Copy CRC 8B6A6B83
Accurately ripped (confidence 1) [38436E8C]
Copy OK
Track 6
Filename C:\Users\Max\Documents\Music\06 - My First Love.wav
Peak level 87.1 %
Track quality 100.0 %
Test CRC 990D8F3E
Copy CRC 990D8F3E
Accurately ripped (confidence 1) [871C38E2]
Copy OK
Track 7
Filename C:\Users\Max\Documents\Music\07 - Woman's Touch.wav
Peak level 99.9 %
Track quality 100.0 %
Test CRC 26C671D2
Copy CRC 26C671D2
Accurately ripped (confidence 1) [DE5D7F3D]
Copy OK
Track 8
Filename C:\Users\Max\Documents\Music\08 - Friends.wav
Peak level 100.0 %
Track quality 100.0 %
Test CRC E9254AE9
Copy CRC E9254AE9
Accurately ripped (confidence 1) [F615BAD5]
Copy OK
Track 9
Filename C:\Users\Max\Documents\Music\09 - We're Movin' Up.wav
Pre-gap length 0:00:00.11
Peak level 100.0 %
Track quality 100.0 %
Test CRC 6FAFF377
Copy CRC 6FAFF377
Accurately ripped (confidence 1) [62646A0B]
Copy OK
Track 10
Filename C:\Users\Max\Documents\Music\10 - My Sugar.wav
Pre-gap length 0:00:00.03
Peak level 95.3 %
Track quality 100.0 %
Test CRC 5DA2813D
Copy CRC 5DA2813D
Accurately ripped (confidence 1) [0E9811B7]
Copy OK
Track 11
Filename C:\Users\Max\Documents\Music\11 - I Can't Wait.wav
Peak level 100.0 %
Track quality 100.0 %
Test CRC 46912E6C
Copy CRC 46912E6C
Accurately ripped (confidence 1) [B497AD4D]
Copy OK
Track 12
Filename C:\Users\Max\Documents\Music\12 - You Deserve The Best.wav
Peak level 99.5 %
Track quality 100.0 %
Test CRC 356D5DFA
Copy CRC 356D5DFA
Accurately ripped (confidence 1) [89D11958]
Copy OK
All tracks accurately ripped
No errors occurred
End of status report
 
Содержание индексной карты (.CUE)
REM GENRE R&B
REM DATE 1989
REM DISCID A80C010C
REM COMMENT "ExactAudioCopy v0.99pb4"
PERFORMER "Atlantic Starr"
TITLE "We're Movin' Up"
FILE "01 - Under Your Spell.wav" WAVE
TRACK 01 AUDIO
TITLE "Under Your Spell"
PERFORMER "Atlantic Starr"
PREGAP 00:00:33
INDEX 01 00:00:00
FILE "02 - Bring It Back Home Again.wav" WAVE
TRACK 02 AUDIO
TITLE "Bring It Back Home Again"
PERFORMER "Atlantic Starr"
INDEX 01 00:00:00
FILE "03 - I'm in Love with You.wav" WAVE
TRACK 03 AUDIO
TITLE "I'm in Love with You"
PERFORMER "Atlantic Starr"
INDEX 01 00:00:00
TRACK 04 AUDIO
TITLE "Don't Start the Fire"
PERFORMER "Atlantic Starr"
INDEX 00 04:29:61
FILE "04 - Don't Start the Fire.wav" WAVE
INDEX 01 00:00:00
FILE "05 - Love Ain't Fair.wav" WAVE
TRACK 05 AUDIO
TITLE "Love Ain't Fair"
PERFORMER "Atlantic Starr"
INDEX 01 00:00:00
FILE "06 - My First Love.wav" WAVE
TRACK 06 AUDIO
TITLE "My First Love"
PERFORMER "Atlantic Starr"
INDEX 01 00:00:00
FILE "07 - Woman's Touch.wav" WAVE
TRACK 07 AUDIO
TITLE "Woman's Touch"
PERFORMER "Atlantic Starr"
INDEX 01 00:00:00
FILE "08 - Friends.wav" WAVE
TRACK 08 AUDIO
TITLE "Friends"
PERFORMER "Atlantic Starr"
INDEX 01 00:00:00
TRACK 09 AUDIO
TITLE "We're Movin' Up"
PERFORMER "Atlantic Starr"
INDEX 00 04:12:59
FILE "09 - We're Movin' Up.wav" WAVE
INDEX 01 00:00:00
TRACK 10 AUDIO
TITLE "My Sugar"
PERFORMER "Atlantic Starr"
INDEX 00 04:05:72
FILE "10 - My Sugar.wav" WAVE
INDEX 01 00:00:00
FILE "11 - I Can't Wait.wav" WAVE
TRACK 11 AUDIO
TITLE "I Can't Wait"
PERFORMER "Atlantic Starr"
INDEX 01 00:00:00
FILE "12 - You Deserve the Best.wav" WAVE
TRACK 12 AUDIO
TITLE "You Deserve the Best"
PERFORMER "Atlantic Starr"
INDEX 01 00:00:00
 
Отчет CUETools
[CUETools log; Date: 06.06.2017 1:44:42; Version: 2.1.5]
Pregap length 00:00:33.
[CTDB TOCID: Abh_5f7ljIxzwZ.Mjl3YqaBU7P8-] found.
Track | CTDB Status
1 | (9/9) Accurately ripped
2 | (9/9) Accurately ripped
3 | (9/9) Accurately ripped
4 | (9/9) Accurately ripped
5 | (9/9) Accurately ripped
6 | (9/9) Accurately ripped
7 | (9/9) Accurately ripped
8 | (9/9) Accurately ripped
9 | (9/9) Accurately ripped
10 | (8/9) Accurately ripped
11 | (9/9) Accurately ripped
12 | (9/9) Accurately ripped
[AccurateRip ID: 001781fb-00daa3ce-a80c010c] found.
Track [ CRC | V2 ] Status
01 [0e822dfe|167b9c80] (04+06/10) Accurately ripped
02 [b883556e|c8b49aa1] (04+06/10) Accurately ripped
03 [beea2f67|4d878e36] (04+06/10) Accurately ripped
04 [3c4e1fb7|b84a9117] (04+06/10) Accurately ripped
05 [38436e8c|f039d6d2] (04+06/10) Accurately ripped
06 [871c38e2|a3bdce6c] (04+06/10) Accurately ripped
07 [de5d7f3d|0cf36219] (04+06/10) Accurately ripped
08 [f615bad5|f95ff51a] (04+06/10) Accurately ripped
09 [62646a0b|409ab62b] (04+06/10) Accurately ripped
10 [0e9811b7|cc801701] (04+06/10) Accurately ripped
11 [b497ad4d|dcfa15af] (04+06/10) Accurately ripped
12 [89d11958|44dfcfc0] (04+06/10) Accurately ripped
Track Peak [ CRC32 ] [W/O NULL] [ LOG ]
-- 100,0 [62A91DF5] [50B5EAA5]
01 100,0 [C948A50D] [07CE83A8] CRC32
02 100,0 [D4F9DEF3] [D94948C9] CRC32
03 100,0 [394DD344] [7BE33333] CRC32
04 100,0 [CC5D7DF4] [9366DB12] CRC32
05 100,0 [8B6A6B83] [3DBDB657] CRC32
06 87,1 [990D8F3E] [A700A64B] CRC32
07 99,9 [26C671D2] [64ABB702] CRC32
08 100,0 [E9254AE9] [5484D890] CRC32
09 100,0 [6FAFF377] [0B1043FC] CRC32
10 95,3 [5DA2813D] [B57994B0] CRC32
11 100,0 [46912E6C] [7661C8E9] CRC32
12 99,5 [356D5DFA] [BBD7D882] CRC32
 
AllMusic Review by Ron Wynn
Prototype classy love ballads, dance-pop, urban contemporary production/arrangements, and one or two above-average leads. Atlantic Starr has shuttled personnel often but never tampered much with its basic formula. The group does it well, and there's little here that's disturbing, poorly performed, or routinely performed. Porscha Martin made a good replacement for Barbara Weathers, who was a good replacement for Sharon Bryant, and, well, you get the idea.
Приватный:
Нет (DHT включён)
Размер:
330.53 Мб (346,589,736 байт) » файлов: 18
Участники:
0 раздают, 0 качают (0 участников всего)
Внешние участники:
2 раздают, 1 качают (3 участников всего) [ Обновить ]
Есть вопросы - пишите личное сообщение пользователю M0p94ok.
13:47
66
Нет комментариев. Ваш будет первым!